  0
SECTION
  2
HEADER
  9
$ACADVER
  1
AC1015
  9
$ACADMAINTVER
 70
     6
  9
$DWGCODEPAGE
  3
ANSI_1250
  9
$INSBASE
 10
0.0
 20
0.0
 30
0.0
  9
$EXTMIN
 10
0.0
 20
0.0
 30
0.0
  9
$EXTMAX
 10
210.0
 20
297.0
 30
0.0
  9
$LIMMIN
 10
0.0
 20
0.0
  9
$LIMMAX
 10
210.0
 20
297.0
  9
$ORTHOMODE
 70
     0
  9
$REGENMODE
 70
     1
  9
$FILLMODE
 70
     1
  9
$QTEXTMODE
 70
     0
  9
$MIRRTEXT
 70
     1
  9
$LTSCALE
 40
1.0
  9
$ATTMODE
 70
     1
  9
$TEXTSIZE
 40
2.5
  9
$TRACEWID
 40
1.0
  9
$TEXTSTYLE
  7
Standard
  9
$CLAYER
  8
0
  9
$CELTYPE
  6
ByLayer
  9
$CECOLOR
 62
   256
  9
$CELTSCALE
 40
1.0
  9
$DISPSILH
 70
     0
  9
$DIMSCALE
 40
1.0
  9
$DIMASZ
 40
2.5
  9
$DIMEXO
 40
0.0
  9
$DIMDLI
 40
3.75
  9
$DIMRND
 40
0.0
  9
$DIMDLE
 40
0.0
  9
$DIMEXE
 40
1.0
  9
$DIMTP
 40
0.0
  9
$DIMTM
 40
0.0
  9
$DIMTXT
 40
2.5
  9
$DIMCEN
 40
2.5
  9
$DIMTSZ
 40
0.0
  9
$DIMTOL
 70
     0
  9
$DIMLIM
 70
     0
  9
$DIMTIH
 70
     1
  9
$DIMTOH
 70
     1
  9
$DIMSE1
 70
     0
  9
$DIMSE2
 70
     0
  9
$DIMTAD
 70
     1
  9
$DIMZIN
 70
     1
  9
$DIMBLK
  1

  9
$DIMASO
 70
     1
  9
$DIMSHO
 70
     1
  9
$DIMPOST
  1

  9
$DIMAPOST
  1

  9
$DIMALT
 70
     0
  9
$DIMALTD
 70
     3
  9
$DIMALTF
 40
0.0393700787
  9
$DIMLFAC
 40
1.0
  9
$DIMTOFL
 70
     1
  9
$DIMTVP
 40
0.0
  9
$DIMTIX
 70
     0
  9
$DIMSOXD
 70
     0
  9
$DIMSAH
 70
     0
  9
$DIMBLK1
  1

  9
$DIMBLK2
  1

  9
$DIMSTYLE
  2
ISO-25
  9
$DIMCLRD
 70
     0
  9
$DIMCLRE
 70
     0
  9
$DIMCLRT
 70
     0
  9
$DIMTFAC
 40
1.0
  9
$DIMGAP
 40
1.524
  9
$DIMJUST
 70
     0
  9
$DIMSD1
 70
     0
  9
$DIMSD2
 70
     0
  9
$DIMTOLJ
 70
     0
  9
$DIMTZIN
 70
     1
  9
$DIMALTZ
 70
     0
  9
$DIMALTTZ
 70
     0
  9
$DIMUPT
 70
     0
  9
$DIMDEC
 70
     2
  9
$DIMTDEC
 70
     2
  9
$DIMALTU
 70
     2
  9
$DIMALTTD
 70
     3
  9
$DIMTXSTY
  7
Standard
  9
$DIMAUNIT
 70
     0
  9
$DIMADEC
 70
     2
  9
$DIMALTRND
 40
0.0
  9
$DIMAZIN
 70
     0
  9
$DIMDSEP
 70
    44
  9
$DIMATFIT
 70
     3
  9
$DIMFRAC
 70
     0
  9
$DIMLDRBLK
  1

  9
$DIMLUNIT
 70
     2
  9
$DIMLWD
 70
    -2
  9
$DIMLWE
 70
    -2
  9
$DIMTMOVE
 70
     0
  9
$LUNITS
 70
     2
  9
$LUPREC
 70
     0
  9
$SKETCHINC
 40
1.0
  9
$FILLETRAD
 40
10.0
  9
$AUNITS
 70
     0
  9
$AUPREC
 70
     2
  9
$MENU
  1
.
  9
$ELEVATION
 40
0.0
  9
$PELEVATION
 40
0.0
  9
$THICKNESS
 40
0.0
  9
$LIMCHECK
 70
     0
  9
$CHAMFERA
 40
10.0
  9
$CHAMFERB
 40
10.0
  9
$CHAMFERC
 40
20.0
  9
$CHAMFERD
 40
0.0
  9
$SKPOLY
 70
     0
  9
$TDCREATE
 40
2455715.566854387
  9
$TDUCREATE
 40
2455715.483521053
  9
$TDUPDATE
 40
2455715.566854398
  9
$TDUUPDATE
 40
2455715.483521065
  9
$TDINDWG
 40
0.0000000116
  9
$TDUSRTIMER
 40
0.0000000116
  9
$USRTIMER
 70
     1
  9
$ANGBASE
 50
0.0
  9
$ANGDIR
 70
     0
  9
$PDMODE
 70
     0
  9
$PDSIZE
 40
-1.0
  9
$PLINEWID
 40
0.0
  9
$SPLFRAME
 70
     0
  9
$SPLINETYPE
 70
     6
  9
$SPLINESEGS
 70
     8
  9
$HANDSEED
  5
3A0
  9
$SURFTAB1
 70
     6
  9
$SURFTAB2
 70
     6
  9
$SURFTYPE
 70
     6
  9
$SURFU
 70
     6
  9
$SURFV
 70
     6
  9
$UCSBASE
  2

  9
$UCSNAME
  2

  9
$UCSORG
 10
0.0
 20
0.0
 30
0.0
  9
$UCSXDIR
 10
1.0
 20
0.0
 30
0.0
  9
$UCSYDIR
 10
0.0
 20
1.0
 30
0.0
  9
$UCSORTHOREF
  2

  9
$UCSORTHOVIEW
 70
     0
  9
$UCSORGTOP
 10
0.0
 20
0.0
 30
0.0
  9
$UCSORGBOTTOM
 10
0.0
 20
0.0
 30
0.0
  9
$UCSORGLEFT
 10
0.0
 20
0.0
 30
0.0
  9
$UCSORGRIGHT
 10
0.0
 20
0.0
 30
0.0
  9
$UCSORGFRONT
 10
0.0
 20
0.0
 30
0.0
  9
$UCSORGBACK
 10
0.0
 20
0.0
 30
0.0
  9
$PUCSBASE
  2

  9
$PUCSNAME
  2

  9
$PUCSORG
 10
0.0
 20
0.0
 30
0.0
  9
$PUCSXDIR
 10
1.0
 20
0.0
 30
0.0
  9
$PUCSYDIR
 10
0.0
 20
1.0
 30
0.0
  9
$PUCSORTHOREF
  2

  9
$PUCSORTHOVIEW
 70
     0
  9
$PUCSORGTOP
 10
0.0
 20
0.0
 30
0.0
  9
$PUCSORGBOTTOM
 10
0.0
 20
0.0
 30
0.0
  9
$PUCSORGLEFT
 10
0.0
 20
0.0
 30
0.0
  9
$PUCSORGRIGHT
 10
0.0
 20
0.0
 30
0.0
  9
$PUCSORGFRONT
 10
0.0
 20
0.0
 30
0.0
  9
$PUCSORGBACK
 10
0.0
 20
0.0
 30
0.0
  9
$USERI1
 70
     0
  9
$USERI2
 70
     0
  9
$USERI3
 70
     0
  9
$USERI4
 70
     0
  9
$USERI5
 70
     0
  9
$USERR1
 40
0.0
  9
$USERR2
 40
0.0
  9
$USERR3
 40
0.0
  9
$USERR4
 40
0.0
  9
$USERR5
 40
0.0
  9
$WORLDVIEW
 70
     1
  9
$SHADEDGE
 70
     3
  9
$SHADEDIF
 70
    70
  9
$TILEMODE
 70
     1
  9
$MAXACTVP
 70
    64
  9
$PINSBASE
 10
0.0
 20
0.0
 30
0.0
  9
$PLIMCHECK
 70
     0
  9
$PEXTMIN
 10
1.0000000000E+20
 20
1.0000000000E+20
 30
1.0000000000E+20
  9
$PEXTMAX
 10
-1.0000000000E+20
 20
-1.0000000000E+20
 30
-1.0000000000E+20
  9
$PLIMMIN
 10
0.0
 20
0.0
  9
$PLIMMAX
 10
420.0
 20
297.0
  9
$UNITMODE
 70
     0
  9
$VISRETAIN
 70
     1
  9
$PLINEGEN
 70
     0
  9
$PSLTSCALE
 70
     1
  9
$TREEDEPTH
 70
  3020
  9
$CMLSTYLE
  2
Standard
  9
$CMLJUST
 70
     0
  9
$CMLSCALE
 40
20.0
  9
$PROXYGRAPHICS
 70
     1
  9
$MEASUREMENT
 70
     1
  9
$CELWEIGHT
370
    -1
  9
$ENDCAPS
280
     0
  9
$JOINSTYLE
280
     0
  9
$LWDISPLAY
290
     1
  9
$INSUNITS
 70
     4
  9
$HYPERLINKBASE
  1

  9
$STYLESHEET
  1

  9
$XEDIT
290
     1
  9
$CEPSNTYPE
380
     0
  9
$PSTYLEMODE
290
     1
  9
$FINGERPRINTGUID
  2
{ACCCDDA5-4E76-451C-83D9-7061585C3D88}
  9
$VERSIONGUID
  2
{FAEB1C32-E019-11D5-929B-00C0DF256EC4}
  9
$EXTNAMES
290
     1
  9
$PSVPSCALE
 40
0.0
  9
$OLESTARTUP
290
     0
  0
ENDSEC
  0
SECTION
  2
CLASSES
  0
CLASS
  1
ACDBDICTIONARYWDFLT
  2
AcDbDictionaryWithDefault
  3
ObjectDBX Classes
 90
        0
280
     0
281
     0
  0
CLASS
  1
VISUALSTYLE
  2
AcDbVisualStyle
  3
ObjectDBX Classes
 90
     4095
280
     0
281
     0
  0
CLASS
  1
MATERIAL
  2
AcDbMaterial
  3
ObjectDBX Classes
 90
     1153
280
     0
281
     0
  0
CLASS
  1
ACDBPLACEHOLDER
  2
AcDbPlaceHolder
  3
ObjectDBX Classes
 90
        0
280
     0
281
     0
  0
CLASS
  1
LAYOUT
  2
AcDbLayout
  3
ObjectDBX Classes
 90
        0
280
     0
281
     0
  0
ENDSEC
  0
SECTION
  2
TABLES
  0
TABLE
  2
VPORT
  5
8
330
0
100
AcDbSymbolTable
 70
     1
  0
VPORT
  5
29
330
8
100
AcDbSymbolTableRecord
100
AcDbViewportTableRecord
  2
*Active
 70
     0
 10
0.0
 20
0.0
 11
1.0
 21
1.0
 12
105.0
 22
148.5
 13
0.0
 23
0.0
 14
10.0
 24
10.0
 15
10.0
 25
10.0
 16
0.0
 26
0.0
 36
1.0
 17
0.0
 27
0.0
 37
0.0
 40
297.0
 41
0.7070707071
 42
50.0
 43
0.0
 44
0.0
 50
0.0
 51
0.0
 71
     0
 72
  2000
 73
     1
 74
     3
 75
     0
 76
     0
 77
     0
 78
     0
281
     0
 65
     1
110
0.0
120
0.0
130
0.0
111
1.0
121
0.0
131
0.0
112
0.0
122
1.0
132
0.0
 79
     0
146
0.0
  0
ENDTAB
  0
TABLE
  2
LTYPE
  5
5
330
0
100
AcDbSymbolTable
 70
     6
  0
LTYPE
  5
14
330
5
100
AcDbSymbolTableRecord
100
AcDbLinetypeTableRecord
  2
ByBlock
 70
     0
  3

 72
    65
 73
     0
 40
0.0
  0
LTYPE
  5
15
330
5
100
AcDbSymbolTableRecord
100
AcDbLinetypeTableRecord
  2
ByLayer
 70
     0
  3

 72
    65
 73
     0
 40
0.0
  0
LTYPE
  5
16
330
5
100
AcDbSymbolTableRecord
100
AcDbLinetypeTableRecord
  2
Continuous
 70
     0
  3
Solid line
 72
    65
 73
     0
 40
0.0
  0
LTYPE
  5
3F
330
5
100
AcDbSymbolTableRecord
100
AcDbLinetypeTableRecord
  2
HIDDEN
 70
     0
  3
Hidden __ __ __ __ __ __ __ __ __ __ __ __ __ __
 72
    65
 73
     2
 40
1.905
 49
1.27
 74
     0
 49
-0.635
 74
     0
  0
LTYPE
  5
40
330
5
100
AcDbSymbolTableRecord
100
AcDbLinetypeTableRecord
  2
PHANTOM
 70
     0
  3
Phantom ______  __  __  ______  __  __  ______
 72
    65
 73
     6
 40
12.7
 49
6.35
 74
     0
 49
-1.27
 74
     0
 49
1.27
 74
     0
 49
-1.27
 74
     0
 49
1.27
 74
     0
 49
-1.27
 74
     0
  0
LTYPE
  5
41
330
5
100
AcDbSymbolTableRecord
100
AcDbLinetypeTableRecord
  2
CENTER
 70
     0
  3
Center ____ _ ____ _ ____ _ ____ _ ____ _ ____
 72
    65
 73
     4
 40
10.16
 49
6.35
 74
     0
 49
-1.27
 74
     0
 49
1.27
 74
     0
 49
-1.27
 74
     0
  0
LTYPE
  5
42
330
5
100
AcDbSymbolTableRecord
100
AcDbLinetypeTableRecord
  2
CENTERX2
 70
     0
  3
Center (2x) ________  __  ________  __  _____
 72
    65
 73
     4
 40
20.32
 49
12.7
 74
     0
 49
-2.54
 74
     0
 49
2.54
 74
     0
 49
-2.54
 74
     0
  0
LTYPE
  5
43
330
5
100
AcDbSymbolTableRecord
100
AcDbLinetypeTableRecord
  2
DOT2
 70
     0
  3
Dot (.5x) ........................................
 72
    65
 73
     2
 40
0.635
 49
0.0
 74
     0
 49
-0.635
 74
     0
  0
ENDTAB
  0
TABLE
  2
LAYER
  5
2
330
0
100
AcDbSymbolTable
 70
    26
  0
LAYER
  5
10
330
2
100
AcDbSymbolTableRecord
100
AcDbLayerTableRecord
  2
0
 70
     0
 62
     7
  6
Continuous
370
    -3
390
F
  0
LAYER
  5
44
330
2
100
AcDbSymbolTableRecord
100
AcDbLayerTableRecord
  2
SLD-0
 70
     0
 62
     1
  6
Continuous
370
    -3
390
F
  0
LAYER
  5
45
330
2
100
AcDbSymbolTableRecord
100
AcDbLayerTableRecord
  2
POČÁTEK
 70
     0
 62
    34
  6
Continuous
370
    -3
390
F
  0
LAYER
  5
46
330
2
100
AcDbSymbolTableRecord
100
AcDbLayerTableRecord
  2
OBRYS
 70
     0
 62
     7
  6
Continuous
370
    15
390
F
  0
LAYER
  5
47
330
2
100
AcDbSymbolTableRecord
100
AcDbLayerTableRecord
  2
SRAFY
 70
     0
 62
     2
  6
Continuous
370
    -1
390
F
  0
LAYER
  5
48
330
2
100
AcDbSymbolTableRecord
100
AcDbLayerTableRecord
  2
KOTY
 70
     0
 62
    82
  6
Continuous
370
    -3
390
F
  0
LAYER
  5
49
330
2
100
AcDbSymbolTableRecord
100
AcDbLayerTableRecord
  2
OSY
 70
     0
 62
     1
  6
CENTERX2
370
    -3
390
F
  0
LAYER
  5
4A
330
2
100
AcDbSymbolTableRecord
100
AcDbLayerTableRecord
  2
REZY
 70
     0
 62
     1
  6
CENTERX2
370
    -3
390
F
  0
LAYER
  5
4B
330
2
100
AcDbSymbolTableRecord
100
AcDbLayerTableRecord
  2
TENKA
 70
     0
 62
   131
  6
Continuous
370
    -3
390
F
  0
LAYER
  5
4C
330
2
100
AcDbSymbolTableRecord
100
AcDbLayerTableRecord
  2
TEXT
 70
     0
 62
    40
  6
Continuous
370
    -3
390
F
  0
LAYER
  5
4D
330
2
100
AcDbSymbolTableRecord
100
AcDbLayerTableRecord
  2
STŘEDOVÉ
 70
     0
 62
     1
  6
CENTERX2
370
    -3
390
F
  0
LAYER
  5
4E
330
2
100
AcDbSymbolTableRecord
100
AcDbLayerTableRecord
  2
OPRACOVÁNÍ
 70
     0
 62
   212
  6
Continuous
370
    -3
390
F
  0
LAYER
  5
4F
330
2
100
AcDbSymbolTableRecord
100
AcDbLayerTableRecord
  2
TABULKA
 70
     0
 62
    41
  6
Continuous
370
    -1
390
F
  0
LAYER
  5
50
330
2
100
AcDbSymbolTableRecord
100
AcDbLayerTableRecord
  2
GEOMETRICKÉ
 70
     0
 62
   212
  6
Continuous
370
    -3
390
F
  0
LAYER
  5
51
330
2
100
AcDbSymbolTableRecord
100
AcDbLayerTableRecord
  2
ČÁRY
 70
     0
 62
     2
  6
Continuous
370
    -3
390
F
  0
LAYER
  5
52
330
2
100
AcDbSymbolTableRecord
100
AcDbLayerTableRecord
  2
POPIS
 70
     0
 62
     3
  6
Continuous
370
    -1
390
F
  0
LAYER
  5
53
330
2
100
AcDbSymbolTableRecord
100
AcDbLayerTableRecord
  2
ZÁKLADNA
 70
     0
 62
   212
  6
Continuous
370
    -1
390
F
  0
LAYER
  5
54
330
2
100
AcDbSymbolTableRecord
100
AcDbLayerTableRecord
  2
STŘEDY
 70
     0
 62
     1
  6
CENTERX2
370
    -3
390
F
  0
LAYER
  5
55
330
2
100
AcDbSymbolTableRecord
100
AcDbLayerTableRecord
  2
KOLÍK
 70
     0
 62
     9
  6
Continuous
370
    -3
390
F
  0
LAYER
  5
56
330
2
100
AcDbSymbolTableRecord
100
AcDbLayerTableRecord
  2
PŘERUŠENÍ
 70
     0
 62
     4
  6
PHANTOM
370
    -3
390
F
  0
LAYER
  5
57
330
2
100
AcDbSymbolTableRecord
100
AcDbLayerTableRecord
  2
DETAIL
 70
     0
 62
     6
  6
Continuous
370
    -3
390
F
  0
LAYER
  5
58
330
2
100
AcDbSymbolTableRecord
100
AcDbLayerTableRecord
  2
ZÁVIT
 70
     0
 62
     2
  6
Continuous
370
    -3
390
F
  0
LAYER
  5
59
330
2
100
AcDbSymbolTableRecord
100
AcDbLayerTableRecord
  2
HRANICE
 70
     0
 62
     6
  6
Continuous
370
    -1
390
F
  0
LAYER
  5
5A
330
2
100
AcDbSymbolTableRecord
100
AcDbLayerTableRecord
  2
LOMENÉ
 70
     0
 62
     6
  6
Continuous
370
    -1
390
F
  0
LAYER
  5
5B
330
2
100
AcDbSymbolTableRecord
100
AcDbLayerTableRecord
  2
TEČNÉ
 70
     0
 62
     6
  6
Continuous
370
    -3
390
F
  0
LAYER
  5
5C
330
2
100
AcDbSymbolTableRecord
100
AcDbLayerTableRecord
  2
SKRYTE
 70
     0
 62
     4
  6
Continuous
370
    -3
390
F
  0
ENDTAB
  0
TABLE
  2
STYLE
  5
3
330
0
100
AcDbSymbolTable
 70
     2
  0
STYLE
  5
11
330
3
100
AcDbSymbolTableRecord
100
AcDbTextStyleTableRecord
  2
Standard
 70
     0
 40
0.0
 41
1.0
 50
0.0
 71
     0
 42
2.5
  3
txt
  4

  0
STYLE
  5
5D
330
3
100
AcDbSymbolTableRecord
100
AcDbTextStyleTableRecord
  2
SLDTEXTSTYLE0
 70
     0
 40
0.0
 41
0.75
 50
0.0
 71
     0
 42
0.2
  3
TXT
  4

  0
ENDTAB
  0
TABLE
  2
VIEW
  5
6
330
0
100
AcDbSymbolTable
 70
     0
  0
ENDTAB
  0
TABLE
  2
UCS
  5
7
330
0
100
AcDbSymbolTable
 70
     0
  0
ENDTAB
  0
TABLE
  2
APPID
  5
9
330
0
100
AcDbSymbolTable
 70
     1
  0
APPID
  5
12
330
9
100
AcDbSymbolTableRecord
100
AcDbRegAppTableRecord
  2
ACAD
 70
     0
  0
ENDTAB
  0
TABLE
  2
DIMSTYLE
  5
A
330
0
100
AcDbSymbolTable
 70
     5
100
AcDbDimStyleTable
  0
DIMSTYLE
105
27
330
A
100
AcDbSymbolTableRecord
100
AcDbDimStyleTableRecord
  2
ISO-25
 70
     0
 41
2.5
 42
0.625
 43
3.75
 44
1.25
 73
     0
 74
     0
 77
     1
 78
     8
140
2.5
141
2.5
143
0.0393700787
147
0.625
171
     3
172
     1
178
     0
271
     2
272
     2
274
     3
278
    44
283
     0
284
     8
340
11
  0
DIMSTYLE
105
B6
102
{ACAD_REACTORS
330
B5
330
C0
330
21E
330
228
330
232
330
246
102
}
330
A
100
AcDbSymbolTableRecord
100
AcDbDimStyleTableRecord
  2
SLDDIMSTYLE0
 70
     0
 41
2.5
 44
0.0
 45
0.000000001
 73
     0
 74
     0
 77
     1
 78
    12
 79
     3
140
2.5
147
0.625
173
     1
178
     0
271
     0
272
     2
276
     2
284
    12
340
5D
  0
DIMSTYLE
105
CB
102
{ACAD_REACTORS
330
CA
330
D5
330
23C
330
376
330
38C
330
396
102
}
330
A
100
AcDbSymbolTableRecord
100
AcDbDimStyleTableRecord
  2
SLDDIMSTYLE1
 70
     0
 41
2.5
 44
0.0
 45
0.000000001
 73
     0
 74
     0
 77
     1
 78
    12
 79
     3
140
2.5
147
0.625
173
     1
178
     0
271
     1
272
     2
276
     2
284
    12
340
5D
  0
DIMSTYLE
105
E0
102
{ACAD_REACTORS
330
DF
330
250
102
}
330
A
100
AcDbSymbolTableRecord
100
AcDbDimStyleTableRecord
  2
SLDDIMSTYLE2
 70
     0
 41
2.5
 44
0.0
 45
0.000000001
 73
     0
 74
     0
 77
     1
 78
    12
 79
     3
140
2.5
147
0.625
172
     1
173
     1
178
     0
271
     0
272
     2
276
     2
284
    12
289
     0
340
5D
  0
DIMSTYLE
105
25D
102
{ACAD_REACTORS
330
25C
330
269
330
380
102
}
330
A
100
AcDbSymbolTableRecord
100
AcDbDimStyleTableRecord
  2
SLDDIMSTYLE3
 70
     0
 41
2.5
 44
0.0
 45
0.000000001
 73
     0
 74
     0
 77
     1
 78
    12
 79
     3
140
2.5
147
0.625
172
     1
173
     1
178
     0
271
     1
272
     2
276
     2
284
    12
289
     0
340
5D
  0
ENDTAB
  0
TABLE
  2
BLOCK_RECORD
  5
1
330
0
100
AcDbSymbolTable
 70
    18
  0
BLOCK_RECORD
  5
1F
330
1
100
AcDbSymbolTableRecord
100
AcDbBlockTableRecord
  2
*Model_Space
340
22
  0
BLOCK_RECORD
  5
1B
330
1
100
AcDbSymbolTableRecord
100
AcDbBlockTableRecord
  2
*Paper_Space
340
1E
  0
BLOCK_RECORD
  5
23
330
1
100
AcDbSymbolTableRecord
100
AcDbBlockTableRecord
  2
*Paper_Space0
340
26
  0
BLOCK_RECORD
  5
B7
330
1
100
AcDbSymbolTableRecord
100
AcDbBlockTableRecord
  2
*D1
340
0
  0
BLOCK_RECORD
  5
C1
330
1
100
AcDbSymbolTableRecord
100
AcDbBlockTableRecord
  2
*D2
340
0
  0
BLOCK_RECORD
  5
CC
330
1
100
AcDbSymbolTableRecord
100
AcDbBlockTableRecord
  2
*D3
340
0
  0
BLOCK_RECORD
  5
D6
330
1
100
AcDbSymbolTableRecord
100
AcDbBlockTableRecord
  2
*D4
340
0
  0
BLOCK_RECORD
  5
E1
330
1
100
AcDbSymbolTableRecord
100
AcDbBlockTableRecord
  2
*D5
340
0
  0
BLOCK_RECORD
  5
21F
330
1
100
AcDbSymbolTableRecord
100
AcDbBlockTableRecord
  2
*D6
340
0
  0
BLOCK_RECORD
  5
229
330
1
100
AcDbSymbolTableRecord
100
AcDbBlockTableRecord
  2
*D7
340
0
  0
BLOCK_RECORD
  5
233
330
1
100
AcDbSymbolTableRecord
100
AcDbBlockTableRecord
  2
*D8
340
0
  0
BLOCK_RECORD
  5
23D
330
1
100
AcDbSymbolTableRecord
100
AcDbBlockTableRecord
  2
*D9
340
0
  0
BLOCK_RECORD
  5
247
330
1
100
AcDbSymbolTableRecord
100
AcDbBlockTableRecord
  2
*D10
340
0
  0
BLOCK_RECORD
  5
251
330
1
100
AcDbSymbolTableRecord
100
AcDbBlockTableRecord
  2
*D11
340
0
  0
BLOCK_RECORD
  5
25E
330
1
100
AcDbSymbolTableRecord
100
AcDbBlockTableRecord
  2
*D12
340
0
  0
BLOCK_RECORD
  5
26A
330
1
100
AcDbSymbolTableRecord
100
AcDbBlockTableRecord
  2
*D13
340
0
  0
BLOCK_RECORD
  5
377
330
1
100
AcDbSymbolTableRecord
100
AcDbBlockTableRecord
  2
*D14
340
0
  0
BLOCK_RECORD
  5
381
330
1
100
AcDbSymbolTableRecord
100
AcDbBlockTableRecord
  2
*D15
340
0
  0
BLOCK_RECORD
  5
38D
330
1
100
AcDbSymbolTableRecord
100
AcDbBlockTableRecord
  2
*D16
340
0
  0
BLOCK_RECORD
  5
397
330
1
100
AcDbSymbolTableRecord
100
AcDbBlockTableRecord
  2
*D17
340
0
  0
ENDTAB
  0
ENDSEC
  0
SECTION
  2
BLOCKS
  0
BLOCK
  5
20
330
1F
100
AcDbEntity
  8
0
100
AcDbBlockBegin
  2
*Model_Space
 70
     0
 10
0.0
 20
0.0
 30
0.0
  3
*Model_Space
  1

  0
ENDBLK
  5
21
330
1F
100
AcDbEntity
  8
0
100
AcDbBlockEnd
  0
BLOCK
  5
1C
330
1B
100
AcDbEntity
 67
     1
  8
0
100
AcDbBlockBegin
  2
*Paper_Space
 70
     0
 10
0.0
 20
0.0
 30
0.0
  3
*Paper_Space
  1

  0
ENDBLK
  5
1D
330
1B
100
AcDbEntity
 67
     1
  8
0
100
AcDbBlockEnd
  0
BLOCK
  5
24
330
23
100
AcDbEntity
  8
0
100
AcDbBlockBegin
  2
*Paper_Space0
 70
     0
 10
0.0
 20
0.0
 30
0.0
  3
*Paper_Space0
  1

  0
ENDBLK
  5
25
330
23
100
AcDbEntity
  8
0
100
AcDbBlockEnd
  0
BLOCK
  5
B8
330
B7
100
AcDbEntity
  8
0
100
AcDbBlockBegin
  2
*D1
 70
     1
 10
0.0
 20
0.0
 30
0.0
  3
*D1
  1

  0
SOLID
  5
BA
330
B7
100
AcDbEntity
  8
KOTY
100
AcDbTrace
 10
43.6710271546
 20
274.5813243334
 30
0.0
 11
46.1710271546
 21
274.1967089488
 31
0.0
 12
46.1710271546
 22
274.9659397181
 32
0.0
 13
46.1710271546
 23
274.9659397181
 33
0.0
  0
SOLID
  5
BB
330
B7
100
AcDbEntity
  8
KOTY
100
AcDbTrace
 10
65.6710271546
 20
274.5813243334
 30
0.0
 11
63.1710271546
 21
274.9659397181
 31
0.0
 12
63.1710271546
 22
274.1967089488
 32
0.0
 13
63.1710271546
 23
274.1967089488
 33
0.0
  0
LINE
  5
BC
330
B7
100
AcDbEntity
  8
KOTY
100
AcDbLine
 10
43.6710271546
 20
262.0813243334
 30
0.0
 11
43.6710271546
 21
275.5813243334
 31
0.0
  0
LINE
  5
BD
330
B7
100
AcDbEntity
  8
KOTY
100
AcDbLine
 10
65.6710271546
 20
262.0813243334
 30
0.0
 11
65.6710271546
 21
275.5813243334
 31
0.0
  0
LINE
  5
BE
330
B7
100
AcDbEntity
  8
KOTY
100
AcDbLine
 10
43.6710271546
 20
274.5813243334
 30
0.0
 11
65.6710271546
 21
274.5813243334
 31
0.0
  0
MTEXT
  5
BF
330
B7
100
AcDbEntity
  8
KOTY
100
AcDbMText
 10
51.8081797444
 20
277.8039936247
 30
-49.9
 40
2.5
 41
0.0
 71
     1
 72
     1
  1
22
  7
SLDTEXTSTYLE0
 73
     1
 44
1.0
  0
ENDBLK
  5
B9
330
B7
100
AcDbEntity
  8
0
100
AcDbBlockEnd
  0
BLOCK
  5
C2
330
C1
100
AcDbEntity
  8
0
100
AcDbBlockBegin
  2
*D2
 70
     1
 10
0.0
 20
0.0
 30
0.0
  3
*D2
  1

  0
SOLID
  5
C4
330
C1
100
AcDbEntity
  8
KOTY
100
AcDbTrace
 10
37.6710271546
 20
262.5813243334
 30
0.0
 11
37.28641177
 21
260.0813243334
 31
0.0
 12
38.0556425392
 22
260.0813243334
 32
0.0
 13
38.0556425392
 23
260.0813243334
 33
0.0
  0
SOLID
  5
C5
330
C1
100
AcDbEntity
  8
KOTY
100
AcDbTrace
 10
37.6710271546
 20
209.5813243334
 30
0.0
 11
38.0556425392
 21
212.0813243334
 31
0.0
 12
37.28641177
 22
212.0813243334
 32
0.0
 13
37.28641177
 23
212.0813243334
 33
0.0
  0
LINE
  5
C6
330
C1
100
AcDbEntity
  8
KOTY
100
AcDbLine
 10
44.1710271546
 20
262.5813243334
 30
0.0
 11
36.6710271546
 21
262.5813243334
 31
0.0
  0
LINE
  5
C7
330
C1
100
AcDbEntity
  8
KOTY
100
AcDbLine
 10
44.1710271546
 20
209.5813243334
 30
0.0
 11
36.6710271546
 21
209.5813243334
 31
0.0
  0
LINE
  5
C8
330
C1
100
AcDbEntity
  8
KOTY
100
AcDbLine
 10
37.6710271546
 20
262.5813243334
 30
0.0
 11
37.6710271546
 21
209.5813243334
 31
0.0
  0
MTEXT
  5
C9
330
C1
100
AcDbEntity
  8
KOTY
100
AcDbMText
 10
34.4483578634
 20
233.0803381198
 30
-49.9
 40
2.5
 41
0.0
 71
     1
 72
     1
  1
53
  7
SLDTEXTSTYLE0
 11
-7.044195017643634E-15
 21
1.0
 31
0.0
 73
     1
 44
1.0
  0
ENDBLK
  5
C3
330
C1
100
AcDbEntity
  8
0
100
AcDbBlockEnd
  0
BLOCK
  5
CD
330
CC
100
AcDbEntity
  8
0
100
AcDbBlockBegin
  2
*D3
 70
     1
 10
0.0
 20
0.0
 30
0.0
  3
*D3
  1

  0
SOLID
  5
CF
330
CC
100
AcDbEntity
  8
KOTY
100
AcDbTrace
 10
71.6710271546
 20
235.2813243334
 30
0.0
 11
71.28641177
 21
232.7813243334
 31
0.0
 12
72.0556425392
 22
232.7813243334
 32
0.0
 13
72.0556425392
 23
232.7813243334
 33
0.0
  0
SOLID
  5
D0
330
CC
100
AcDbEntity
  8
KOTY
100
AcDbTrace
 10
71.6710271546
 20
210.7813243334
 30
0.0
 11
72.0556425392
 21
213.2813243334
 31
0.0
 12
71.28641177
 22
213.2813243334
 32
0.0
 13
71.28641177
 23
213.2813243334
 33
0.0
  0
LINE
  5
D1
330
CC
100
AcDbEntity
  8
KOTY
100
AcDbLine
 10
64.4710271546
 20
235.2813243334
 30
0.0
 11
72.6710271546
 21
235.2813243334
 31
0.0
  0
LINE
  5
D2
330
CC
100
AcDbEntity
  8
KOTY
100
AcDbLine
 10
64.4710271546
 20
210.7813243334
 30
0.0
 11
72.6710271546
 21
210.7813243334
 31
0.0
  0
LINE
  5
D3
330
CC
100
AcDbEntity
  8
KOTY
100
AcDbLine
 10
71.6710271546
 20
235.2813243334
 30
0.0
 11
71.6710271546
 21
210.7813243334
 31
0.0
  0
MTEXT
  5
D4
330
CC
100
AcDbEntity
  8
KOTY
100
AcDbMText
 10
68.4483578634
 20
218.7830605534
 30
-49.9
 40
2.5
 41
0.0
 71
     1
 72
     1
  1
24,5
  7
SLDTEXTSTYLE0
 11
-7.044195017643634E-15
 21
1.0
 31
0.0
 73
     1
 44
1.0
  0
ENDBLK
  5
CE
330
CC
100
AcDbEntity
  8
0
100
AcDbBlockEnd
  0
BLOCK
  5
D7
330
D6
100
AcDbEntity
  8
0
100
AcDbBlockBegin
  2
*D4
 70
     1
 10
0.0
 20
0.0
 30
0.0
  3
*D4
  1

  0
SOLID
  5
D9
330
D6
100
AcDbEntity
  8
KOTY
100
AcDbTrace
 10
71.6710271546
 20
262.5813243334
 30
0.0
 11
71.28641177
 21
260.0813243334
 31
0.0
 12
72.0556425392
 22
260.0813243334
 32
0.0
 13
72.0556425392
 23
260.0813243334
 33
0.0
  0
SOLID
  5
DA
330
D6
100
AcDbEntity
  8
KOTY
100
AcDbTrace
 10
71.6710271546
 20
236.3813243334
 30
0.0
 11
72.0556425392
 21
238.8813243334
 31
0.0
 12
71.28641177
 22
238.8813243334
 32
0.0
 13
71.28641177
 23
238.8813243334
 33
0.0
  0
LINE
  5
DB
330
D6
100
AcDbEntity
  8
KOTY
100
AcDbLine
 10
65.1710271546
 20
262.5813243334
 30
0.0
 11
72.6710271546
 21
262.5813243334
 31
0.0
  0
LINE
  5
DC
330
D6
100
AcDbEntity
  8
KOTY
100
AcDbLine
 10
63.4710271546
 20
236.3813243334
 30
0.0
 11
72.6710271546
 21
236.3813243334
 31
0.0
  0
LINE
  5
DD
330
D6
100
AcDbEntity
  8
KOTY
100
AcDbLine
 10
71.6710271546
 20
262.5813243334
 30
0.0
 11
71.6710271546
 21
236.3813243334
 31
0.0
  0
MTEXT
  5
DE
330
D6
100
AcDbEntity
  8
KOTY
100
AcDbMText
 10
68.4483578634
 20
245.2330605534
 30
-49.9
 40
2.5
 41
0.0
 71
     1
 72
     1
  1
26,2
  7
SLDTEXTSTYLE0
 11
-7.044195017643634E-15
 21
1.0
 31
0.0
 73
     1
 44
1.0
  0
ENDBLK
  5
D8
330
D6
100
AcDbEntity
  8
0
100
AcDbBlockEnd
  0
BLOCK
  5
E2
330
E1
100
AcDbEntity
  8
0
100
AcDbBlockBegin
  2
*D5
 70
     1
 10
0.0
 20
0.0
 30
0.0
  3
*D5
  1

  0
SOLID
  5
E4
330
E1
100
AcDbEntity
  8
KOTY
100
AcDbTrace
 10
47.1710271546
 20
268.5813243334
 30
0.0
 11
44.6710271546
 21
268.9659397181
 31
0.0
 12
44.6710271546
 22
268.1967089488
 32
0.0
 13
44.6710271546
 23
268.1967089488
 33
0.0
  0
SOLID
  5
E5
330
E1
100
AcDbEntity
  8
KOTY
100
AcDbTrace
 10
62.1710271546
 20
268.5813243334
 30
0.0
 11
64.6710271546
 21
268.1967089488
 31
0.0
 12
64.6710271546
 22
268.9659397181
 32
0.0
 13
64.6710271546
 23
268.9659397181
 33
0.0
  0
LINE
  5
E6
330
E1
100
AcDbEntity
  8
KOTY
100
AcDbLine
 10
47.1710271546
 20
262.0813243334
 30
0.0
 11
47.1710271546
 21
269.5813243334
 31
0.0
  0
LINE
  5
E7
330
E1
100
AcDbEntity
  8
KOTY
100
AcDbLine
 10
62.1710271546
 20
262.0813243334
 30
0.0
 11
62.1710271546
 21
269.5813243334
 31
0.0
  0
LINE
  5
E8
330
E1
100
AcDbEntity
  8
KOTY
100
AcDbLine
 10
47.1710271546
 20
268.5813243334
 30
0.0
 11
42.3633348469
 21
268.5813243334
 31
0.0
  0
LINE
  5
E9
330
E1
100
AcDbEntity
  8
KOTY
100
AcDbLine
 10
47.1710271546
 20
268.5813243334
 30
0.0
 11
62.1710271546
 21
268.5813243334
 31
0.0
  0
LINE
  5
EA
330
E1
100
AcDbEntity
  8
KOTY
100
AcDbLine
 10
62.1710271546
 20
268.5813243334
 30
0.0
 11
66.9787194623
 21
268.5813243334
 31
0.0
  0
MTEXT
  5
EB
330
E1
100
AcDbEntity
  8
KOTY
100
AcDbMText
 10
51.8081797444
 20
271.8039936247
 30
-49.9
 40
2.5
 41
0.0
 71
     1
 72
     1
  1
15
  7
SLDTEXTSTYLE0
 73
     1
 44
1.0
  0
ENDBLK
  5
E3
330
E1
100
AcDbEntity
  8
0
100
AcDbBlockEnd
  0
BLOCK
  5
220
330
21F
100
AcDbEntity
  8
0
100
AcDbBlockBegin
  2
*D6
 70
     1
 10
0.0
 20
0.0
 30
0.0
  3
*D6
  1

  0
SOLID
  5
222
330
21F
100
AcDbEntity
  8
KOTY
100
AcDbTrace
 10
134.6802102901
 20
108.0519458362
 30
0.0
 11
137.1802102901
 21
107.6673304516
 31
0.0
 12
137.1802102901
 22
108.4365612208
 32
0.0
 13
137.1802102901
 23
108.4365612208
 33
0.0
  0
SOLID
  5
223
330
21F
100
AcDbEntity
  8
KOTY
100
AcDbTrace
 10
173.6802102901
 20
108.0519458362
 30
0.0
 11
171.1802102901
 21
108.4365612208
 31
0.0
 12
171.1802102901
 22
107.6673304516
 32
0.0
 13
171.1802102901
 23
107.6673304516
 33
0.0
  0
LINE
  5
224
330
21F
100
AcDbEntity
  8
KOTY
100
AcDbLine
 10
134.6802102901
 20
120.5519458362
 30
0.0
 11
134.6802102901
 21
107.0519458362
 31
0.0
  0
LINE
  5
225
330
21F
100
AcDbEntity
  8
KOTY
100
AcDbLine
 10
173.6802102901
 20
120.5519458362
 30
0.0
 11
173.6802102901
 21
107.0519458362
 31
0.0
  0
LINE
  5
226
330
21F
100
AcDbEntity
  8
KOTY
100
AcDbLine
 10
134.6802102901
 20
108.0519458362
 30
0.0
 11
173.6802102901
 21
108.0519458362
 31
0.0
  0
MTEXT
  5
227
330
21F
100
AcDbEntity
  8
KOTY
100
AcDbMText
 10
151.31736288
 20
111.2746151274
 30
-49.9
 40
2.5
 41
0.0
 71
     1
 72
     1
  1
39
  7
SLDTEXTSTYLE0
 73
     1
 44
1.0
  0
ENDBLK
  5
221
330
21F
100
AcDbEntity
  8
0
100
AcDbBlockEnd
  0
BLOCK
  5
22A
330
229
100
AcDbEntity
  8
0
100
AcDbBlockBegin
  2
*D7
 70
     1
 10
0.0
 20
0.0
 30
0.0
  3
*D7
  1

  0
SOLID
  5
22C
330
229
100
AcDbEntity
  8
KOTY
100
AcDbTrace
 10
179.6802102901
 20
120.0519458362
 30
0.0
 11
180.0648256747
 21
122.5519458362
 31
0.0
 12
179.2955949055
 22
122.5519458362
 32
0.0
 13
179.2955949055
 23
122.5519458362
 33
0.0
  0
SOLID
  5
22D
330
229
100
AcDbEntity
  8
KOTY
100
AcDbTrace
 10
179.6802102901
 20
173.0519458362
 30
0.0
 11
179.2955949055
 21
170.5519458362
 31
0.0
 12
180.0648256747
 22
170.5519458362
 32
0.0
 13
180.0648256747
 23
170.5519458362
 33
0.0
  0
LINE
  5
22E
330
229
100
AcDbEntity
  8
KOTY
100
AcDbLine
 10
173.1802102901
 20
120.0519458362
 30
0.0
 11
180.6802102901
 21
120.0519458362
 31
0.0
  0
LINE
  5
22F
330
229
100
AcDbEntity
  8
KOTY
100
AcDbLine
 10
173.1802102901
 20
173.0519458362
 30
0.0
 11
180.6802102901
 21
173.0519458362
 31
0.0
  0
LINE
  5
230
330
229
100
AcDbEntity
  8
KOTY
100
AcDbLine
 10
179.6802102901
 20
120.0519458362
 30
0.0
 11
179.6802102901
 21
173.0519458362
 31
0.0
  0
MTEXT
  5
231
330
229
100
AcDbEntity
  8
KOTY
100
AcDbMText
 10
176.4575409989
 20
143.6890984261
 30
-49.9
 40
2.5
 41
0.0
 71
     1
 72
     1
  1
53
  7
SLDTEXTSTYLE0
 11
6.123233995736766E-17
 21
1.0
 31
0.0
 73
     1
 44
1.0
  0
ENDBLK
  5
22B
330
229
100
AcDbEntity
  8
0
100
AcDbBlockEnd
  0
BLOCK
  5
234
330
233
100
AcDbEntity
  8
0
100
AcDbBlockBegin
  2
*D8
 70
     1
 10
0.0
 20
0.0
 30
0.0
  3
*D8
  1

  0
SOLID
  5
236
330
233
100
AcDbEntity
  8
KOTY
100
AcDbTrace
 10
135.8802102901
 20
114.0519458362
 30
0.0
 11
138.3802102901
 21
113.6673304516
 31
0.0
 12
138.3802102901
 22
114.4365612208
 32
0.0
 13
138.3802102901
 23
114.4365612208
 33
0.0
  0
SOLID
  5
237
330
233
100
AcDbEntity
  8
KOTY
100
AcDbTrace
 10
156.8802102901
 20
114.0519458362
 30
0.0
 11
154.3802102901
 21
114.4365612208
 31
0.0
 12
154.3802102901
 22
113.6673304516
 32
0.0
 13
154.3802102901
 23
113.6673304516
 33
0.0
  0
LINE
  5
238
330
233
100
AcDbEntity
  8
KOTY
100
AcDbLine
 10
135.8802102901
 20
121.7519458362
 30
0.0
 11
135.8802102901
 21
113.0519458362
 31
0.0
  0
LINE
  5
239
330
233
100
AcDbEntity
  8
KOTY
100
AcDbLine
 10
156.8802102901
 20
126.4519458362
 30
0.0
 11
156.8802102901
 21
113.0519458362
 31
0.0
  0
LINE
  5
23A
330
233
100
AcDbEntity
  8
KOTY
100
AcDbLine
 10
135.8802102901
 20
114.0519458362
 30
0.0
 11
156.8802102901
 21
114.0519458362
 31
0.0
  0
MTEXT
  5
23B
330
233
100
AcDbEntity
  8
KOTY
100
AcDbMText
 10
144.4549632479
 20
117.2746151274
 30
-49.9
 40
2.5
 41
0.0
 71
     1
 72
     1
  1
21
  7
SLDTEXTSTYLE0
 73
     1
 44
1.0
  0
ENDBLK
  5
235
330
233
100
AcDbEntity
  8
0
100
AcDbBlockEnd
  0
BLOCK
  5
23E
330
23D
100
AcDbEntity
  8
0
100
AcDbBlockBegin
  2
*D9
 70
     1
 10
0.0
 20
0.0
 30
0.0
  3
*D9
  1

  0
SOLID
  5
240
330
23D
100
AcDbEntity
  8
KOTY
100
AcDbTrace
 10
128.6802102901
 20
145.7519458362
 30
0.0
 11
128.2955949055
 21
143.2519458362
 31
0.0
 12
129.0648256747
 22
143.2519458362
 32
0.0
 13
129.0648256747
 23
143.2519458362
 33
0.0
  0
SOLID
  5
241
330
23D
100
AcDbEntity
  8
KOTY
100
AcDbTrace
 10
128.6802102901
 20
121.2519458362
 30
0.0
 11
129.0648256747
 21
123.7519458362
 31
0.0
 12
128.2955949055
 22
123.7519458362
 32
0.0
 13
128.2955949055
 23
123.7519458362
 33
0.0
  0
LINE
  5
242
330
23D
100
AcDbEntity
  8
KOTY
100
AcDbLine
 10
136.3802102901
 20
145.7519458362
 30
0.0
 11
127.6802102901
 21
145.7519458362
 31
0.0
  0
LINE
  5
243
330
23D
100
AcDbEntity
  8
KOTY
100
AcDbLine
 10
136.3802102901
 20
121.2519458362
 30
0.0
 11
127.6802102901
 21
121.2519458362
 31
0.0
  0
LINE
  5
244
330
23D
100
AcDbEntity
  8
KOTY
100
AcDbLine
 10
128.6802102901
 20
145.7519458362
 30
0.0
 11
128.6802102901
 21
121.2519458362
 31
0.0
  0
MTEXT
  5
245
330
23D
100
AcDbEntity
  8
KOTY
100
AcDbMText
 10
125.4575409989
 20
129.1186616692
 30
-49.9
 40
2.5
 41
0.0
 71
     1
 72
     1
  1
24,5
  7
SLDTEXTSTYLE0
 11
-7.044195017643634E-15
 21
1.0
 31
0.0
 73
     1
 44
1.0
  0
ENDBLK
  5
23F
330
23D
100
AcDbEntity
  8
0
100
AcDbBlockEnd
  0
BLOCK
  5
248
330
247
100
AcDbEntity
  8
0
100
AcDbBlockBegin
  2
*D10
 70
     1
 10
0.0
 20
0.0
 30
0.0
  3
*D10
  1

  0
SOLID
  5
24A
330
247
100
AcDbEntity
  8
KOTY
100
AcDbTrace
 10
128.6802102901
 20
173.0519458362
 30
0.0
 11
128.2955949055
 21
170.5519458362
 31
0.0
 12
129.0648256747
 22
170.5519458362
 32
0.0
 13
129.0648256747
 23
170.5519458362
 33
0.0
  0
SOLID
  5
24B
330
247
100
AcDbEntity
  8
KOTY
100
AcDbTrace
 10
128.6802102901
 20
147.0519458362
 30
0.0
 11
129.0648256747
 21
149.5519458362
 31
0.0
 12
128.2955949055
 22
149.5519458362
 32
0.0
 13
128.2955949055
 23
149.5519458362
 33
0.0
  0
LINE
  5
24C
330
247
100
AcDbEntity
  8
KOTY
100
AcDbLine
 10
135.1802102901
 20
173.0519458362
 30
0.0
 11
127.6802102901
 21
173.0519458362
 31
0.0
  0
LINE
  5
24D
330
247
100
AcDbEntity
  8
KOTY
100
AcDbLine
 10
136.8802102901
 20
147.0519458362
 30
0.0
 11
127.6802102901
 21
147.0519458362
 31
0.0
  0
LINE
  5
24E
330
247
100
AcDbEntity
  8
KOTY
100
AcDbLine
 10
128.6802102901
 20
173.0519458362
 30
0.0
 11
128.6802102901
 21
147.0519458362
 31
0.0
  0
MTEXT
  5
24F
330
247
100
AcDbEntity
  8
KOTY
100
AcDbMText
 10
125.4575409989
 20
157.1890984261
 30
-49.9
 40
2.5
 41
0.0
 71
     1
 72
     1
  1
26
  7
SLDTEXTSTYLE0
 11
-7.044195017643634E-15
 21
1.0
 31
0.0
 73
     1
 44
1.0
  0
ENDBLK
  5
249
330
247
100
AcDbEntity
  8
0
100
AcDbBlockEnd
  0
BLOCK
  5
252
330
251
100
AcDbEntity
  8
0
100
AcDbBlockBegin
  2
*D11
 70
     1
 10
0.0
 20
0.0
 30
0.0
  3
*D11
  1

  0
SOLID
  5
254
330
251
100
AcDbEntity
  8
KOTY
100
AcDbTrace
 10
155.1802102901
 20
179.0519458362
 30
0.0
 11
152.6802102901
 21
179.4365612208
 31
0.0
 12
152.6802102901
 22
178.6673304516
 32
0.0
 13
152.6802102901
 23
178.6673304516
 33
0.0
  0
SOLID
  5
255
330
251
100
AcDbEntity
  8
KOTY
100
AcDbTrace
 10
170.1802102901
 20
179.0519458362
 30
0.0
 11
172.6802102901
 21
178.6673304516
 31
0.0
 12
172.6802102901
 22
179.4365612208
 32
0.0
 13
172.6802102901
 23
179.4365612208
 33
0.0
  0
LINE
  5
256
330
251
100
AcDbEntity
  8
KOTY
100
AcDbLine
 10
155.1802102901
 20
172.5519458362
 30
0.0
 11
155.1802102901
 21
180.0519458362
 31
0.0
  0
LINE
  5
257
330
251
100
AcDbEntity
  8
KOTY
100
AcDbLine
 10
170.1802102901
 20
172.5519458362
 30
0.0
 11
170.1802102901
 21
180.0519458362
 31
0.0
  0
LINE
  5
258
330
251
100
AcDbEntity
  8
KOTY
100
AcDbLine
 10
155.1802102901
 20
179.0519458362
 30
0.0
 11
150.3725179824
 21
179.0519458362
 31
0.0
  0
LINE
  5
259
330
251
100
AcDbEntity
  8
KOTY
100
AcDbLine
 10
155.1802102901
 20
179.0519458362
 30
0.0
 11
170.1802102901
 21
179.0519458362
 31
0.0
  0
LINE
  5
25A
330
251
100
AcDbEntity
  8
KOTY
100
AcDbLine
 10
170.1802102901
 20
179.0519458362
 30
0.0
 11
174.9879025978
 21
179.0519458362
 31
0.0
  0
MTEXT
  5
25B
330
251
100
AcDbEntity
  8
KOTY
100
AcDbMText
 10
159.6823424929
 20
182.2746151275
 30
-49.9
 40
2.5
 41
0.0
 71
     1
 72
     1
  1
15
  7
SLDTEXTSTYLE0
 73
     1
 44
1.0
  0
ENDBLK
  5
253
330
251
100
AcDbEntity
  8
0
100
AcDbBlockEnd
  0
BLOCK
  5
25F
330
25E
100
AcDbEntity
  8
0
100
AcDbBlockBegin
  2
*D12
 70
     1
 10
0.0
 20
0.0
 30
0.0
  3
*D12
  1

  0
SOLID
  5
261
330
25E
100
AcDbEntity
  8
KOTY
100
AcDbTrace
 10
149.3802102901
 20
179.0519458362
 30
0.0
 11
151.8802102901
 21
178.6673304516
 31
0.0
 12
151.8802102901
 22
179.4365612208
 32
0.0
 13
151.8802102901
 23
179.4365612208
 33
0.0
  0
SOLID
  5
262
330
25E
100
AcDbEntity
  8
KOTY
100
AcDbTrace
 10
138.1802102901
 20
179.0519458362
 30
0.0
 11
135.6802102901
 21
179.4365612208
 31
0.0
 12
135.6802102901
 22
178.6673304516
 32
0.0
 13
135.6802102901
 23
178.6673304516
 33
0.0
  0
LINE
  5
263
330
25E
100
AcDbEntity
  8
KOTY
100
AcDbLine
 10
149.3802102901
 20
172.5519458362
 30
0.0
 11
149.3802102901
 21
180.0519458362
 31
0.0
  0
LINE
  5
264
330
25E
100
AcDbEntity
  8
KOTY
100
AcDbLine
 10
138.1802102901
 20
172.5519458362
 30
0.0
 11
138.1802102901
 21
180.0519458362
 31
0.0
  0
LINE
  5
265
330
25E
100
AcDbEntity
  8
KOTY
100
AcDbLine
 10
149.3802102901
 20
179.0519458362
 30
0.0
 11
154.1879025978
 21
179.0519458362
 31
0.0
  0
LINE
  5
266
330
25E
100
AcDbEntity
  8
KOTY
100
AcDbLine
 10
149.3802102901
 20
179.0519458362
 30
0.0
 11
138.1802102901
 21
179.0519458362
 31
0.0
  0
LINE
  5
267
330
25E
100
AcDbEntity
  8
KOTY
100
AcDbLine
 10
138.1802102901
 20
179.0519458362
 30
0.0
 11
133.3725179824
 21
179.0519458362
 31
0.0
  0
MTEXT
  5
268
330
25E
100
AcDbEntity
  8
KOTY
100
AcDbMText
 10
138.9918649619
 20
182.2746151275
 30
-49.9
 40
2.5
 41
0.0
 71
     1
 72
     1
  1
11,3
  7
SLDTEXTSTYLE0
 73
     1
 44
1.0
  0
ENDBLK
  5
260
330
25E
100
AcDbEntity
  8
0
100
AcDbBlockEnd
  0
BLOCK
  5
26B
330
26A
100
AcDbEntity
  8
0
100
AcDbBlockBegin
  2
*D13
 70
     1
 10
0.0
 20
0.0
 30
0.0
  3
*D13
  1

  0
SOLID
  5
26D
330
26A
100
AcDbEntity
  8
KOTY
100
AcDbTrace
 10
156.2802102901
 20
130.1813869692
 30
0.0
 11
158.7802102901
 21
129.7967715846
 31
0.0
 12
158.7802102901
 22
130.5660023538
 32
0.0
 13
158.7802102901
 23
130.5660023538
 33
0.0
  0
SOLID
  5
26E
330
26A
100
AcDbEntity
  8
KOTY
100
AcDbTrace
 10
139.7802102901
 20
130.1813869692
 30
0.0
 11
137.2802102901
 21
130.5660023538
 31
0.0
 12
137.2802102901
 22
129.7967715846
 32
0.0
 13
137.2802102901
 23
129.7967715846
 33
0.0
  0
LINE
  5
26F
330
26A
100
AcDbEntity
  8
KOTY
100
AcDbLine
 10
156.2802102901
 20
125.8519458362
 30
0.0
 11
156.2802102901
 21
131.1813869692
 31
0.0
  0
LINE
  5
270
330
26A
100
AcDbEntity
  8
KOTY
100
AcDbLine
 10
139.7802102901
 20
125.9519458362
 30
0.0
 11
139.7802102901
 21
131.1813869692
 31
0.0
  0
LINE
  5
271
330
26A
100
AcDbEntity
  8
KOTY
100
AcDbLine
 10
156.2802102901
 20
130.1813869692
 30
0.0
 11
161.0879025978
 21
130.1813869692
 31
0.0
  0
LINE
  5
272
330
26A
100
AcDbEntity
  8
KOTY
100
AcDbLine
 10
156.2802102901
 20
130.1813869692
 30
0.0
 11
139.7802102901
 21
130.1813869692
 31
0.0
  0
LINE
  5
273
330
26A
100
AcDbEntity
  8
KOTY
100
AcDbLine
 10
139.7802102901
 20
130.1813869692
 30
0.0
 11
134.9725179824
 21
130.1813869692
 31
0.0
  0
MTEXT
  5
274
330
26A
100
AcDbEntity
  8
KOTY
100
AcDbMText
 10
143.069546878
 20
133.4040562604
 30
-49.9
 40
2.5
 41
0.0
 71
     1
 72
     1
  1
16,5
  7
SLDTEXTSTYLE0
 73
     1
 44
1.0
  0
ENDBLK
  5
26C
330
26A
100
AcDbEntity
  8
0
100
AcDbBlockEnd
  0
BLOCK
  5
378
330
377
100
AcDbEntity
  8
0
100
AcDbBlockBegin
  2
*D14
 70
     1
 10
0.0
 20
0.0
 30
0.0
  3
*D14
  1

  0
SOLID
  5
37A
330
377
100
AcDbEntity
  8
KOTY
100
AcDbTrace
 10
41.5251254724
 20
63.1592353019
 30
0.0
 11
41.1405100878
 21
60.6592353019
 31
0.0
 12
41.909740857
 22
60.6592353019
 32
0.0
 13
41.909740857
 23
60.6592353019
 33
0.0
  0
SOLID
  5
37B
330
377
100
AcDbEntity
  8
KOTY
100
AcDbTrace
 10
41.5251254724
 20
44.8592353019
 30
0.0
 11
41.909740857
 21
47.3592353019
 31
0.0
 12
41.1405100878
 22
47.3592353019
 32
0.0
 13
41.1405100878
 23
47.3592353019
 33
0.0
  0
LINE
  5
37C
330
377
100
AcDbEntity
  8
KOTY
100
AcDbLine
 10
47.5251254724
 20
63.1592353019
 30
0.0
 11
40.5251254724
 21
63.1592353019
 31
0.0
  0
LINE
  5
37D
330
377
100
AcDbEntity
  8
KOTY
100
AcDbLine
 10
48.0251254724
 20
44.8592353019
 30
0.0
 11
40.5251254724
 21
44.8592353019
 31
0.0
  0
LINE
  5
37E
330
377
100
AcDbEntity
  8
KOTY
100
AcDbLine
 10
41.5251254724
 20
63.1592353019
 30
0.0
 11
41.5251254724
 21
44.8592353019
 31
0.0
  0
MTEXT
  5
37F
330
377
100
AcDbEntity
  8
KOTY
100
AcDbMText
 10
38.3024561812
 20
49.7609715219
 30
-49.9
 40
2.5
 41
0.0
 71
     1
 72
     1
  1
18,3
  7
SLDTEXTSTYLE0
 11
-3.491481338843133E-15
 21
1.0
 31
0.0
 73
     1
 44
1.0
  0
ENDBLK
  5
379
330
377
100
AcDbEntity
  8
0
100
AcDbBlockEnd
  0
BLOCK
  5
382
330
381
100
AcDbEntity
  8
0
100
AcDbBlockBegin
  2
*D15
 70
     1
 10
0.0
 20
0.0
 30
0.0
  3
*D15
  1

  0
SOLID
  5
384
330
381
100
AcDbEntity
  8
KOTY
100
AcDbTrace
 10
85.5251254724
 20
59.6592353019
 30
0.0
 11
85.909740857
 21
62.1592353019
 31
0.0
 12
85.1405100878
 22
62.1592353019
 32
0.0
 13
85.1405100878
 23
62.1592353019
 33
0.0
  0
SOLID
  5
385
330
381
100
AcDbEntity
  8
KOTY
100
AcDbTrace
 10
85.5251254724
 20
48.3592353019
 30
0.0
 11
85.1405100878
 21
45.8592353019
 31
0.0
 12
85.909740857
 22
45.8592353019
 32
0.0
 13
85.909740857
 23
45.8592353019
 33
0.0
  0
LINE
  5
386
330
381
100
AcDbEntity
  8
KOTY
100
AcDbLine
 10
79.0251254724
 20
59.6592353019
 30
0.0
 11
86.5251254724
 21
59.6592353019
 31
0.0
  0
LINE
  5
387
330
381
100
AcDbEntity
  8
KOTY
100
AcDbLine
 10
79.0251254724
 20
48.3592353019
 30
0.0
 11
86.5251254724
 21
48.3592353019
 31
0.0
  0
LINE
  5
388
330
381
100
AcDbEntity
  8
KOTY
100
AcDbLine
 10
85.5251254724
 20
59.6592353019
 30
0.0
 11
85.5251254724
 21
64.4669276096
 31
0.0
  0
LINE
  5
389
330
381
100
AcDbEntity
  8
KOTY
100
AcDbLine
 10
85.5251254724
 20
59.6592353019
 30
0.0
 11
85.5251254724
 21
48.3592353019
 31
0.0
  0
LINE
  5
38A
330
381
100
AcDbEntity
  8
KOTY
100
AcDbLine
 10
85.5251254724
 20
48.3592353019
 30
0.0
 11
85.5251254724
 21
43.5515429942
 31
0.0
  0
MTEXT
  5
38B
330
381
100
AcDbEntity
  8
KOTY
100
AcDbMText
 10
82.3024561812
 20
49.7609715219
 30
-49.9
 40
2.5
 41
0.0
 71
     1
 72
     1
  1
11,3
  7
SLDTEXTSTYLE0
 11
-3.491481338843133E-15
 21
1.0
 31
0.0
 73
     1
 44
1.0
  0
ENDBLK
  5
383
330
381
100
AcDbEntity
  8
0
100
AcDbBlockEnd
  0
BLOCK
  5
38E
330
38D
100
AcDbEntity
  8
0
100
AcDbBlockBegin
  2
*D16
 70
     1
 10
0.0
 20
0.0
 30
0.0
  3
*D16
  1

  0
SOLID
  5
390
330
38D
100
AcDbEntity
  8
KOTY
100
AcDbTrace
 10
79.5251254724
 20
69.1592353019
 30
0.0
 11
77.0251254724
 21
69.5438506865
 31
0.0
 12
77.0251254724
 22
68.7746199173
 32
0.0
 13
77.0251254724
 23
68.7746199173
 33
0.0
  0
SOLID
  5
391
330
38D
100
AcDbEntity
  8
KOTY
100
AcDbTrace
 10
47.5251254724
 20
69.1592353019
 30
0.0
 11
50.0251254724
 21
68.7746199173
 31
0.0
 12
50.0251254724
 22
69.5438506865
 32
0.0
 13
50.0251254724
 23
69.5438506865
 33
0.0
  0
LINE
  5
392
330
38D
100
AcDbEntity
  8
KOTY
100
AcDbLine
 10
79.5251254724
 20
62.6592353019
 30
0.0
 11
79.5251254724
 21
70.1592353019
 31
0.0
  0
LINE
  5
393
330
38D
100
AcDbEntity
  8
KOTY
100
AcDbLine
 10
47.5251254724
 20
63.1592353019
 30
0.0
 11
47.5251254724
 21
70.1592353019
 31
0.0
  0
LINE
  5
394
330
38D
100
AcDbEntity
  8
KOTY
100
AcDbLine
 10
79.5251254724
 20
69.1592353019
 30
0.0
 11
47.5251254724
 21
69.1592353019
 31
0.0
  0
MTEXT
  5
395
330
38D
100
AcDbEntity
  8
KOTY
100
AcDbMText
 10
59.2768616924
 20
72.3819045932
 30
-49.9
 40
2.5
 41
0.0
 71
     1
 72
     1
  1
32,0
  7
SLDTEXTSTYLE0
 73
     1
 44
1.0
  0
ENDBLK
  5
38F
330
38D
100
AcDbEntity
  8
0
100
AcDbBlockEnd
  0
BLOCK
  5
398
330
397
100
AcDbEntity
  8
0
100
AcDbBlockBegin
  2
*D17
 70
     1
 10
0.0
 20
0.0
 30
0.0
  3
*D17
  1

  0
SOLID
  5
39A
330
397
100
AcDbEntity
  8
KOTY
100
AcDbTrace
 10
79.5251254724
 20
38.8592353019
 30
0.0
 11
77.0251254724
 21
39.2438506865
 31
0.0
 12
77.0251254724
 22
38.4746199173
 32
0.0
 13
77.0251254724
 23
38.4746199173
 33
0.0
  0
SOLID
  5
39B
330
397
100
AcDbEntity
  8
KOTY
100
AcDbTrace
 10
53.5251254724
 20
38.8592353019
 30
0.0
 11
56.0251254724
 21
38.4746199173
 31
0.0
 12
56.0251254724
 22
39.2438506865
 32
0.0
 13
56.0251254724
 23
39.2438506865
 33
0.0
  0
LINE
  5
39C
330
397
100
AcDbEntity
  8
KOTY
100
AcDbLine
 10
79.5251254724
 20
45.3592353019
 30
0.0
 11
79.5251254724
 21
37.8592353019
 31
0.0
  0
LINE
  5
39D
330
397
100
AcDbEntity
  8
KOTY
100
AcDbLine
 10
53.5251254724
 20
46.5592353019
 30
0.0
 11
53.5251254724
 21
37.8592353019
 31
0.0
  0
LINE
  5
39E
330
397
100
AcDbEntity
  8
KOTY
100
AcDbLine
 10
79.5251254724
 20
38.8592353019
 30
0.0
 11
53.5251254724
 21
38.8592353019
 31
0.0
  0
MTEXT
  5
39F
330
397
100
AcDbEntity
  8
KOTY
100
AcDbMText
 10
62.2768616924
 20
42.0819045932
 30
-49.9
 40
2.5
 41
0.0
 71
     1
 72
     1
  1
26,0
  7
SLDTEXTSTYLE0
 73
     1
 44
1.0
  0
ENDBLK
  5
399
330
397
100
AcDbEntity
  8
0
100
AcDbBlockEnd
  0
ENDSEC
  0
SECTION
  2
ENTITIES
  0
MTEXT
  5
5E
330
1F
100
AcDbEntity
  8
TEXT
100
AcDbMText
 10
96.5602989959
 20
242.5913276366
 30
0.0
 40
5.2916666667
 41
0.0
 71
     1
 72
     1
  1
A3
  7
SLDTEXTSTYLE0
 73
     1
 44
1.0
  0
MTEXT
  5
5F
330
1F
100
AcDbEntity
  8
TEXT
100
AcDbMText
 10
98.3054322663
 20
152.1151718433
 30
0.0
 40
5.2916666667
 41
0.0
 71
     1
 72
     1
  1
A20
  7
SLDTEXTSTYLE0
 73
     1
 44
1.0
  0
MTEXT
  5
60
330
1F
100
AcDbEntity
  8
TEXT
100
AcDbMText
 10
98.3054322663
 20
59.0118871671
 30
0.0
 40
5.2916666667
 41
0.0
 71
     1
 72
     1
  1
A22
  7
SLDTEXTSTYLE0
 73
     1
 44
1.0
  0
LINE
  5
61
330
1F
100
AcDbEntity
  8
OBRYS
100
AcDbLine
 10
64.4710271546
 20
214.9813243334
 30
0.0
 11
64.4710271546
 21
231.0813243334
 31
0.0
  0
LINE
  5
62
330
1F
100
AcDbEntity
  8
OBRYS
100
AcDbLine
 10
64.4710271546
 20
231.0813243334
 30
0.0
 11
62.9710271546
 21
231.0813243334
 31
0.0
  0
ARC
  5
63
330
1F
100
AcDbEntity
  8
OBRYS
100
AcDbCircle
 10
62.9710271546
 20
231.5813243334
 30
0.0
 40
0.5
100
AcDbArc
 50
180.0
 51
270.0
  0
LINE
  5
64
330
1F
100
AcDbEntity
  8
OBRYS
100
AcDbLine
 10
62.4710271546
 20
231.5813243334
 30
0.0
 11
62.4710271546
 21
231.7813243334
 31
0.0
  0
ARC
  5
65
330
1F
100
AcDbEntity
  8
OBRYS
100
AcDbCircle
 10
62.9710271546
 20
231.7813243334
 30
0.0
 40
0.5
100
AcDbArc
 50
90.0
 51
180.0
  0
LINE
  5
66
330
1F
100
AcDbEntity
  8
OBRYS
100
AcDbLine
 10
62.9710271546
 20
232.2813243334
 30
0.0
 11
64.4710271546
 21
232.2813243334
 31
0.0
  0
LINE
  5
67
330
1F
100
AcDbEntity
  8
OBRYS
100
AcDbLine
 10
64.4710271546
 20
232.2813243334
 30
0.0
 11
64.4710271546
 21
235.2813243334
 31
0.0
  0
LINE
  5
68
330
1F
100
AcDbEntity
  8
OBRYS
100
AcDbLine
 10
64.4710271546
 20
235.2813243334
 30
0.0
 11
44.8710271546
 21
235.2813243334
 31
0.0
  0
LINE
  5
69
330
1F
100
AcDbEntity
  8
OBRYS
100
AcDbLine
 10
44.8710271546
 20
235.2813243334
 30
0.0
 11
44.8710271546
 21
232.2813243334
 31
0.0
  0
LINE
  5
6A
330
1F
100
AcDbEntity
  8
OBRYS
100
AcDbLine
 10
44.8710271546
 20
232.2813243334
 30
0.0
 11
46.3710271546
 21
232.2813243334
 31
0.0
  0
ARC
  5
6B
330
1F
100
AcDbEntity
  8
OBRYS
100
AcDbCircle
 10
46.3710271546
 20
231.7813243334
 30
0.0
 40
0.5
100
AcDbArc
 50
0.0
 51
90.0
  0
LINE
  5
6C
330
1F
100
AcDbEntity
  8
OBRYS
100
AcDbLine
 10
46.8710271546
 20
231.7813243334
 30
0.0
 11
46.8710271546
 21
231.5813243334
 31
0.0
  0
ARC
  5
6D
330
1F
100
AcDbEntity
  8
OBRYS
100
AcDbCircle
 10
46.3710271546
 20
231.5813243334
 30
0.0
 40
0.5
100
AcDbArc
 50
270.0
 51
0.0
  0
LINE
  5
6E
330
1F
100
AcDbEntity
  8
OBRYS
100
AcDbLine
 10
46.3710271546
 20
231.0813243334
 30
0.0
 11
44.8710271546
 21
231.0813243334
 31
0.0
  0
LINE
  5
6F
330
1F
100
AcDbEntity
  8
OBRYS
100
AcDbLine
 10
44.8710271546
 20
231.0813243334
 30
0.0
 11
44.8710271546
 21
214.9813243334
 31
0.0
  0
LINE
  5
70
330
1F
100
AcDbEntity
  8
OBRYS
100
AcDbLine
 10
44.8710271546
 20
214.9813243334
 30
0.0
 11
46.3710271546
 21
214.9813243334
 31
0.0
  0
ARC
  5
71
330
1F
100
AcDbEntity
  8
OBRYS
100
AcDbCircle
 10
46.3710271546
 20
214.4813243334
 30
0.0
 40
0.5
100
AcDbArc
 50
0.0
 51
90.0
  0
LINE
  5
72
330
1F
100
AcDbEntity
  8
OBRYS
100
AcDbLine
 10
46.8710271546
 20
214.4813243334
 30
0.0
 11
46.8710271546
 21
214.2813243334
 31
0.0
  0
ARC
  5
73
330
1F
100
AcDbEntity
  8
OBRYS
100
AcDbCircle
 10
46.3710271546
 20
214.2813243334
 30
0.0
 40
0.5
100
AcDbArc
 50
270.0
 51
0.0
  0
LINE
  5
74
330
1F
100
AcDbEntity
  8
OBRYS
100
AcDbLine
 10
46.3710271546
 20
213.7813243334
 30
0.0
 11
44.8710271546
 21
213.7813243334
 31
0.0
  0
LINE
  5
75
330
1F
100
AcDbEntity
  8
OBRYS
100
AcDbLine
 10
44.8710271546
 20
213.7813243334
 30
0.0
 11
44.8710271546
 21
210.7813243334
 31
0.0
  0
LINE
  5
76
330
1F
100
AcDbEntity
  8
OBRYS
100
AcDbLine
 10
44.8710271546
 20
210.7813243334
 30
0.0
 11
64.4710271546
 21
210.7813243334
 31
0.0
  0
LINE
  5
77
330
1F
100
AcDbEntity
  8
OBRYS
100
AcDbLine
 10
64.4710271546
 20
210.7813243334
 30
0.0
 11
64.4710271546
 21
213.7813243334
 31
0.0
  0
LINE
  5
78
330
1F
100
AcDbEntity
  8
OBRYS
100
AcDbLine
 10
64.4710271546
 20
213.7813243334
 30
0.0
 11
62.9710271546
 21
213.7813243334
 31
0.0
  0
ARC
  5
79
330
1F
100
AcDbEntity
  8
OBRYS
100
AcDbCircle
 10
62.9710271546
 20
214.2813243334
 30
0.0
 40
0.5
100
AcDbArc
 50
180.0
 51
270.0
  0
LINE
  5
7A
330
1F
100
AcDbEntity
  8
OBRYS
100
AcDbLine
 10
62.4710271546
 20
214.2813243334
 30
0.0
 11
62.4710271546
 21
214.4813243334
 31
0.0
  0
ARC
  5
7B
330
1F
100
AcDbEntity
  8
OBRYS
100
AcDbCircle
 10
62.9710271546
 20
214.4813243334
 30
0.0
 40
0.5
100
AcDbArc
 50
90.0
 51
180.0
  0
LINE
  5
7C
330
1F
100
AcDbEntity
  8
OBRYS
100
AcDbLine
 10
62.9710271546
 20
214.9813243334
 30
0.0
 11
64.4710271546
 21
214.9813243334
 31
0.0
  0
ARC
  5
7D
330
1F
100
AcDbEntity
  8
OBRYS
100
AcDbCircle
 10
44.1710271546
 20
210.0813243334
 30
0.0
 40
0.5
100
AcDbArc
 50
180.0
 51
270.0
  0
LINE
  5
7E
330
1F
100
AcDbEntity
  8
OBRYS
100
AcDbLine
 10
43.6710271546
 20
262.0813243334
 30
0.0
 11
43.6710271546
 21
210.0813243334
 31
0.0
  0
ARC
  5
7F
330
1F
100
AcDbEntity
  8
OBRYS
100
AcDbCircle
 10
44.1710271546
 20
262.0813243334
 30
0.0
 40
0.5000000000000568
100
AcDbArc
 50
90.0
 51
180.0
  0
LINE
  5
80
330
1F
100
AcDbEntity
  8
OBRYS
100
AcDbLine
 10
46.6710271546
 20
262.5813243334
 30
0.0
 11
44.1710271546
 21
262.5813243334
 31
0.0
  0
ARC
  5
81
330
1F
100
AcDbEntity
  8
OBRYS
100
AcDbCircle
 10
46.6710271546
 20
262.0813243334
 30
0.0
 40
0.5
100
AcDbArc
 50
0.0
 51
90.0
  0
LINE
  5
82
330
1F
100
AcDbEntity
  8
OBRYS
100
AcDbLine
 10
47.1710271546
 20
260.6813243334
 30
0.0
 11
47.1710271546
 21
262.0813243334
 31
0.0
  0
ARC
  5
83
330
1F
100
AcDbEntity
  8
OBRYS
100
AcDbCircle
 10
46.6710271546
 20
260.6813243334
 30
0.0
 40
0.5
100
AcDbArc
 50
270.0
 51
0.0
  0
LINE
  5
84
330
1F
100
AcDbEntity
  8
OBRYS
100
AcDbLine
 10
46.4710271546
 20
260.1813243334
 30
0.0
 11
46.6710271546
 21
260.1813243334
 31
0.0
  0
ARC
  5
85
330
1F
100
AcDbEntity
  8
OBRYS
100
AcDbCircle
 10
46.4710271546
 20
260.6813243334
 30
0.0
 40
0.5
100
AcDbArc
 50
180.0
 51
270.0
  0
LINE
  5
86
330
1F
100
AcDbEntity
  8
OBRYS
100
AcDbLine
 10
45.9710271546
 20
260.8813243334
 30
0.0
 11
45.9710271546
 21
260.6813243334
 31
0.0
  0
ARC
  5
87
330
1F
100
AcDbEntity
  8
OBRYS
100
AcDbCircle
 10
45.4710271546
 20
260.8813243334
 30
0.0
 40
0.5
100
AcDbArc
 50
0.0
 51
90.0
  0
LINE
  5
88
330
1F
100
AcDbEntity
  8
OBRYS
100
AcDbLine
 10
45.3710271546
 20
261.3813243334
 30
0.0
 11
45.4710271546
 21
261.3813243334
 31
0.0
  0
ARC
  5
89
330
1F
100
AcDbEntity
  8
OBRYS
100
AcDbCircle
 10
45.3710271546
 20
260.8813243334
 30
0.0
 40
0.5
100
AcDbArc
 50
90.0
 51
180.0
  0
LINE
  5
8A
330
1F
100
AcDbEntity
  8
OBRYS
100
AcDbLine
 10
44.8710271546
 20
256.4813243334
 30
0.0
 11
44.8710271546
 21
260.8813243334
 31
0.0
  0
ARC
  5
8B
330
1F
100
AcDbEntity
  8
OBRYS
100
AcDbCircle
 10
45.3710271546
 20
256.4813243334
 30
0.0
 40
0.5
100
AcDbArc
 50
180.0
 51
270.0
  0
LINE
  5
8C
330
1F
100
AcDbEntity
  8
OBRYS
100
AcDbLine
 10
45.4710271546
 20
255.9813243334
 30
0.0
 11
45.3710271546
 21
255.9813243334
 31
0.0
  0
ARC
  5
8D
330
1F
100
AcDbEntity
  8
OBRYS
100
AcDbCircle
 10
45.4710271546
 20
256.4813243334
 30
0.0
 40
0.5
100
AcDbArc
 50
270.0
 51
0.0
  0
LINE
  5
8E
330
1F
100
AcDbEntity
  8
OBRYS
100
AcDbLine
 10
45.9710271546
 20
256.6813243334
 30
0.0
 11
45.9710271546
 21
256.4813243334
 31
0.0
  0
ARC
  5
8F
330
1F
100
AcDbEntity
  8
OBRYS
100
AcDbCircle
 10
46.4710271546
 20
256.6813243334
 30
0.0
 40
0.5
100
AcDbArc
 50
90.0
 51
180.0
  0
LINE
  5
90
330
1F
100
AcDbEntity
  8
OBRYS
100
AcDbLine
 10
46.6710271546
 20
257.1813243334
 30
0.0
 11
46.4710271546
 21
257.1813243334
 31
0.0
  0
ARC
  5
91
330
1F
100
AcDbEntity
  8
OBRYS
100
AcDbCircle
 10
46.6710271546
 20
256.6813243334
 30
0.0
 40
0.5
100
AcDbArc
 50
0.0
 51
90.0
  0
LINE
  5
92
330
1F
100
AcDbEntity
  8
OBRYS
100
AcDbLine
 10
47.1710271546
 20
255.2813243334
 30
0.0
 11
47.1710271546
 21
256.6813243334
 31
0.0
  0
ARC
  5
93
330
1F
100
AcDbEntity
  8
OBRYS
100
AcDbCircle
 10
46.6710271546
 20
255.2813243334
 30
0.0
 40
0.5
100
AcDbArc
 50
270.0
 51
0.0
  0
LINE
  5
94
330
1F
100
AcDbEntity
  8
OBRYS
100
AcDbLine
 10
45.3710271546
 20
254.7813243334
 30
0.0
 11
46.6710271546
 21
254.7813243334
 31
0.0
  0
ARC
  5
95
330
1F
100
AcDbEntity
  8
OBRYS
100
AcDbCircle
 10
45.3710271546
 20
254.2813243334
 30
0.0
 40
0.5
100
AcDbArc
 50
90.0
 51
180.0
  0
LINE
  5
96
330
1F
100
AcDbEntity
  8
OBRYS
100
AcDbLine
 10
44.8710271546
 20
237.3813243334
 30
0.0
 11
44.8710271546
 21
254.2813243334
 31
0.0
  0
ARC
  5
97
330
1F
100
AcDbEntity
  8
OBRYS
100
AcDbCircle
 10
45.8710271546
 20
237.3813243334
 30
0.0
 40
1.0
100
AcDbArc
 50
180.0
 51
270.0
  0
LINE
  5
98
330
1F
100
AcDbEntity
  8
OBRYS
100
AcDbLine
 10
63.4710271546
 20
236.3813243334
 30
0.0
 11
45.8710271546
 21
236.3813243334
 31
0.0
  0
ARC
  5
99
330
1F
100
AcDbEntity
  8
OBRYS
100
AcDbCircle
 10
63.4710271546
 20
237.3813243334
 30
0.0
 40
1.0
100
AcDbArc
 50
270.0
 51
0.0
  0
LINE
  5
9A
330
1F
100
AcDbEntity
  8
OBRYS
100
AcDbLine
 10
64.4710271546
 20
254.2813243334
 30
0.0
 11
64.4710271546
 21
237.3813243334
 31
0.0
  0
ARC
  5
9B
330
1F
100
AcDbEntity
  8
OBRYS
100
AcDbCircle
 10
63.9710271546
 20
254.2813243334
 30
0.0
 40
0.5
100
AcDbArc
 50
0.0
 51
90.0
  0
LINE
  5
9C
330
1F
100
AcDbEntity
  8
OBRYS
100
AcDbLine
 10
62.6710271546
 20
254.7813243334
 30
0.0
 11
63.9710271546
 21
254.7813243334
 31
0.0
  0
ARC
  5
9D
330
1F
100
AcDbEntity
  8
OBRYS
100
AcDbCircle
 10
62.6710271546
 20
255.2813243334
 30
0.0
 40
0.5
100
AcDbArc
 50
180.0
 51
270.0
  0
LINE
  5
9E
330
1F
100
AcDbEntity
  8
OBRYS
100
AcDbLine
 10
62.1710271546
 20
256.6813243334
 30
0.0
 11
62.1710271546
 21
255.2813243334
 31
0.0
  0
ARC
  5
9F
330
1F
100
AcDbEntity
  8
OBRYS
100
AcDbCircle
 10
62.6710271546
 20
256.6813243334
 30
0.0
 40
0.5
100
AcDbArc
 50
90.0
 51
180.0
  0
LINE
  5
A0
330
1F
100
AcDbEntity
  8
OBRYS
100
AcDbLine
 10
62.8710271546
 20
257.1813243334
 30
0.0
 11
62.6710271546
 21
257.1813243334
 31
0.0
  0
ARC
  5
A1
330
1F
100
AcDbEntity
  8
OBRYS
100
AcDbCircle
 10
62.8710271546
 20
256.6813243334
 30
0.0
 40
0.5
100
AcDbArc
 50
0.0
 51
90.0
  0
LINE
  5
A2
330
1F
100
AcDbEntity
  8
OBRYS
100
AcDbLine
 10
63.3710271546
 20
256.4813243334
 30
0.0
 11
63.3710271546
 21
256.6813243334
 31
0.0
  0
ARC
  5
A3
330
1F
100
AcDbEntity
  8
OBRYS
100
AcDbCircle
 10
63.8710271546
 20
256.4813243334
 30
0.0
 40
0.5000000000000071
100
AcDbArc
 50
180.0
 51
270.0
  0
LINE
  5
A4
330
1F
100
AcDbEntity
  8
OBRYS
100
AcDbLine
 10
63.9710271546
 20
255.9813243334
 30
0.0
 11
63.8710271546
 21
255.9813243334
 31
0.0
  0
ARC
  5
A5
330
1F
100
AcDbEntity
  8
OBRYS
100
AcDbCircle
 10
63.9710271546
 20
256.4813243334
 30
0.0
 40
0.5
100
AcDbArc
 50
270.0
 51
0.0
  0
LINE
  5
A6
330
1F
100
AcDbEntity
  8
OBRYS
100
AcDbLine
 10
64.4710271546
 20
260.8813243334
 30
0.0
 11
64.4710271546
 21
256.4813243334
 31
0.0
  0
ARC
  5
A7
330
1F
100
AcDbEntity
  8
OBRYS
100
AcDbCircle
 10
63.9710271546
 20
260.8813243334
 30
0.0
 40
0.5
100
AcDbArc
 50
0.0
 51
90.0
  0
LINE
  5
A8
330
1F
100
AcDbEntity
  8
OBRYS
100
AcDbLine
 10
63.8710271546
 20
261.3813243334
 30
0.0
 11
63.9710271546
 21
261.3813243334
 31
0.0
  0
ARC
  5
A9
330
1F
100
AcDbEntity
  8
OBRYS
100
AcDbCircle
 10
63.8710271546
 20
260.8813243334
 30
0.0
 40
0.5000000000000071
100
AcDbArc
 50
90.0
 51
180.0
  0
LINE
  5
AA
330
1F
100
AcDbEntity
  8
OBRYS
100
AcDbLine
 10
63.3710271546
 20
260.6813243334
 30
0.0
 11
63.3710271546
 21
260.8813243334
 31
0.0
  0
ARC
  5
AB
330
1F
100
AcDbEntity
  8
OBRYS
100
AcDbCircle
 10
62.8710271546
 20
260.6813243334
 30
0.0
 40
0.5
100
AcDbArc
 50
270.0
 51
0.0
  0
LINE
  5
AC
330
1F
100
AcDbEntity
  8
OBRYS
100
AcDbLine
 10
62.6710271546
 20
260.1813243334
 30
0.0
 11
62.8710271546
 21
260.1813243334
 31
0.0
  0
ARC
  5
AD
330
1F
100
AcDbEntity
  8
OBRYS
100
AcDbCircle
 10
62.6710271546
 20
260.6813243334
 30
0.0
 40
0.5
100
AcDbArc
 50
180.0
 51
270.0
  0
LINE
  5
AE
330
1F
100
AcDbEntity
  8
OBRYS
100
AcDbLine
 10
62.1710271546
 20
262.0813243334
 30
0.0
 11
62.1710271546
 21
260.6813243334
 31
0.0
  0
ARC
  5
AF
330
1F
100
AcDbEntity
  8
OBRYS
100
AcDbCircle
 10
62.6710271546
 20
262.0813243334
 30
0.0
 40
0.5
100
AcDbArc
 50
90.0
 51
180.0
  0
LINE
  5
B0
330
1F
100
AcDbEntity
  8
OBRYS
100
AcDbLine
 10
65.1710271546
 20
262.5813243334
 30
0.0
 11
62.6710271546
 21
262.5813243334
 31
0.0
  0
ARC
  5
B1
330
1F
100
AcDbEntity
  8
OBRYS
100
AcDbCircle
 10
65.1710271546
 20
262.0813243334
 30
0.0
 40
0.5000000000000568
100
AcDbArc
 50
0.0
 51
90.0
  0
LINE
  5
B2
330
1F
100
AcDbEntity
  8
OBRYS
100
AcDbLine
 10
65.6710271546
 20
210.0813243334
 30
0.0
 11
65.6710271546
 21
262.0813243334
 31
0.0
  0
ARC
  5
B3
330
1F
100
AcDbEntity
  8
OBRYS
100
AcDbCircle
 10
65.1710271546
 20
210.0813243334
 30
0.0
 40
0.5
100
AcDbArc
 50
270.0
 51
0.0
  0
LINE
  5
B4
330
1F
100
AcDbEntity
  8
OBRYS
100
AcDbLine
 10
44.1710271546
 20
209.5813243334
 30
0.0
 11
65.1710271546
 21
209.5813243334
 31
0.0
  0
DIMENSION
  5
B5
330
1F
100
AcDbEntity
  8
KOTY
100
AcDbDimension
  2
*D1
 10
65.6710271546
 20
274.5813243334
 30
0.0
 11
54.6710271546
 21
274.5813243334
 31
0.0
 70
   160
 71
     2
 42
-1.0
  3
SLDDIMSTYLE0
100
AcDbAlignedDimension
 13
43.6710271546
 23
262.0813243334
 33
0.0
 14
65.6710271546
 24
262.0813243334
 34
0.0
100
AcDbRotatedDimension
  0
DIMENSION
  5
C0
330
1F
100
AcDbEntity
  8
KOTY
100
AcDbDimension
  2
*D2
 10
37.6710271546
 20
209.5813243334
 30
0.0
 11
37.6710271546
 21
235.94318553
 31
0.0
 70
   160
 71
     2
 42
-1.0
  3
SLDDIMSTYLE0
100
AcDbAlignedDimension
 13
44.1710271546
 23
262.5813243334
 33
0.0
 14
44.1710271546
 24
209.5813243334
 34
0.0
 50
90.0
100
AcDbRotatedDimension
  0
DIMENSION
  5
CA
330
1F
100
AcDbEntity
  8
KOTY
100
AcDbDimension
  2
*D3
 10
71.6710271546
 20
210.7813243334
 30
0.0
 11
71.6710271546
 21
223.0313243334
 31
0.0
 70
   160
 71
     2
 42
-1.0
  3
SLDDIMSTYLE1
100
AcDbAlignedDimension
 13
64.4710271546
 23
235.2813243334
 33
0.0
 14
64.4710271546
 24
210.7813243334
 34
0.0
 50
90.0
100
AcDbRotatedDimension
  0
DIMENSION
  5
D5
330
1F
100
AcDbEntity
  8
KOTY
100
AcDbDimension
  2
*D4
 10
71.6710271546
 20
236.3813243334
 30
0.0
 11
71.6710271546
 21
249.4813243334
 31
0.0
 70
   160
 71
     2
 42
-1.0
  3
SLDDIMSTYLE1
100
AcDbAlignedDimension
 13
65.1710271546
 23
262.5813243334
 33
0.0
 14
63.4710271546
 24
236.3813243334
 34
0.0
 50
90.0
100
AcDbRotatedDimension
  0
DIMENSION
  5
DF
330
1F
100
AcDbEntity
  8
KOTY
100
AcDbDimension
  2
*D5
 10
62.1710271546
 20
268.5813243334
 30
0.0
 11
54.6710271546
 21
268.5813243334
 31
0.0
 70
   160
 71
     2
 42
-1.0
  3
SLDDIMSTYLE2
100
AcDbAlignedDimension
 13
47.1710271546
 23
262.0813243334
 33
0.0
 14
62.1710271546
 24
262.0813243334
 34
0.0
100
AcDbRotatedDimension
  0
ARC
  5
EC
330
1F
100
AcDbEntity
  8
OBRYS
100
AcDbCircle
 10
137.2302102901
 20
169.1519458362
 30
0.0
 40
1.0
100
AcDbArc
 50
270.0
 51
281.8767879015
  0
LINE
  5
ED
330
1F
100
AcDbEntity
  8
OBRYS
100
AcDbLine
 10
136.7302106001
 20
168.1519442209
 30
0.0
 11
137.2302097507
 21
168.1519442209
 31
0.0
  0
LINE
  5
EE
330
1F
100
AcDbEntity
  8
OBRYS
100
AcDbLine
 10
136.7302106001
 20
166.9519462594
 30
0.0
 11
136.7302106001
 21
168.1519442209
 31
0.0
  0
LINE
  5
EF
330
1F
100
AcDbEntity
  8
OBRYS
100
AcDbLine
 10
136.7302106001
 20
170.1519445488
 30
0.0
 11
136.7302106001
 21
171.3519462356
 31
0.0
  0
ARC
  5
F0
330
1F
100
AcDbEntity
  8
OBRYS
100
AcDbCircle
 10
137.2302102901
 20
169.1519458362
 30
0.0
 40
1.0
100
AcDbArc
 50
341.8767879015
 51
90.0
  0
LINE
  5
F1
330
1F
100
AcDbEntity
  8
OBRYS
100
AcDbLine
 10
137.4419086851
 20
169.6049191961
 30
0.0
 11
142.5124478765
 21
163.9491015085
 31
0.0
  0
LINE
  5
F2
330
1F
100
AcDbEntity
  8
OBRYS
100
AcDbLine
 10
142.5124478765
 20
163.9491015085
 30
0.0
 11
142.4975560285
 21
163.9357537934
 31
0.0
  0
LINE
  5
F3
330
1F
100
AcDbEntity
  8
OBRYS
100
AcDbLine
 10
137.3992969521
 20
169.6224876651
 30
0.0
 11
142.4975560285
 21
163.9357537934
 31
0.0
  0
LINE
  5
F4
330
1F
100
AcDbEntity
  8
OBRYS
100
AcDbLine
 10
137.3444532283
 20
169.6387187549
 30
0.0
 11
142.4752173253
 21
163.9157266328
 31
0.0
  0
LINE
  5
F5
330
1F
100
AcDbEntity
  8
OBRYS
100
AcDbLine
 10
142.4752173253
 20
163.9157266328
 30
0.0
 11
142.4603254773
 21
163.9023751923
 31
0.0
  0
LINE
  5
F6
330
1F
100
AcDbEntity
  8
OBRYS
100
AcDbLine
 10
137.3117340036
 20
169.6452566394
 30
0.0
 11
142.4603254773
 21
163.9023751923
 31
0.0
  0
LINE
  5
F7
330
1F
100
AcDbEntity
  8
OBRYS
100
AcDbLine
 10
137.2666356392
 20
169.6506173321
 30
0.0
 11
142.4379886367
 21
163.8823480317
 31
0.0
  0
LINE
  5
F8
330
1F
100
AcDbEntity
  8
OBRYS
100
AcDbLine
 10
142.4379886367
 20
163.8823480317
 30
0.0
 11
142.4230967887
 21
163.8690003165
 31
0.0
  0
LINE
  5
F9
330
1F
100
AcDbEntity
  8
OBRYS
100
AcDbLine
 10
137.2386475332
 20
169.6518764803
 30
0.0
 11
142.4230967887
 21
163.8690003165
 31
0.0
  0
LINE
  5
FA
330
1F
100
AcDbEntity
  8
OBRYS
100
AcDbLine
 10
137.1991575934
 20
169.6509824106
 30
0.0
 11
142.4007599481
 21
163.8489731559
 31
0.0
  0
LINE
  5
FB
330
1F
100
AcDbEntity
  8
OBRYS
100
AcDbLine
 10
142.4007599481
 20
163.8489731559
 30
0.0
 11
142.3858681001
 21
163.8356217155
 31
0.0
  0
LINE
  5
FC
330
1F
100
AcDbEntity
  8
OBRYS
100
AcDbLine
 10
137.1742484398
 20
169.6488031158
 30
0.0
 11
142.3858681001
 21
163.8356217155
 31
0.0
  0
LINE
  5
FD
330
1F
100
AcDbEntity
  8
OBRYS
100
AcDbLine
 10
137.138711033
 20
169.6435020277
 30
0.0
 11
142.3635312595
 21
163.8155982801
 31
0.0
  0
LINE
  5
FE
330
1F
100
AcDbEntity
  8
OBRYS
100
AcDbLine
 10
142.3635312595
 20
163.8155982801
 30
0.0
 11
142.3486394115
 21
163.8022468397
 31
0.0
  0
LINE
  5
FF
330
1F
100
AcDbEntity
  8
OBRYS
100
AcDbLine
 10
137.1161078341
 20
169.6387522825
 30
0.0
 11
142.3486394115
 21
163.8022468397
 31
0.0
  0
LINE
  5
100
330
1F
100
AcDbEntity
  8
OBRYS
100
AcDbLine
 10
137.0836717315
 20
169.6299903998
 30
0.0
 11
142.3263007082
 21
163.782219679
 31
0.0
  0
LINE
  5
101
330
1F
100
AcDbEntity
  8
OBRYS
100
AcDbLine
 10
142.3263007082
 20
163.782219679
 30
0.0
 11
142.3114107229
 21
163.7688682386
 31
0.0
  0
LINE
  5
102
330
1F
100
AcDbEntity
  8
OBRYS
100
AcDbLine
 10
137.0629516669
 20
169.6231395909
 30
0.0
 11
142.3114107229
 21
163.7688682386
 31
0.0
  0
LINE
  5
103
330
1F
100
AcDbEntity
  8
OBRYS
100
AcDbLine
 10
137.0331288554
 20
169.6114645311
 30
0.0
 11
142.2890720196
 21
163.7488448033
 31
0.0
  0
LINE
  5
104
330
1F
100
AcDbEntity
  8
OBRYS
100
AcDbLine
 10
142.2890720196
 20
163.7488448033
 30
0.0
 11
142.2741801717
 21
163.7354933628
 31
0.0
  0
LINE
  5
105
330
1F
100
AcDbEntity
  8
OBRYS
100
AcDbLine
 10
137.0140367426
 20
169.6027995059
 30
0.0
 11
142.2741801717
 21
163.7354933628
 31
0.0
  0
LINE
  5
106
330
1F
100
AcDbEntity
  8
OBRYS
100
AcDbLine
 10
136.9865254738
 20
169.5885428199
 30
0.0
 11
142.251843331
 21
163.7154662022
 31
0.0
  0
LINE
  5
107
330
1F
100
AcDbEntity
  8
OBRYS
100
AcDbLine
 10
142.251843331
 20
163.7154662022
 30
0.0
 11
142.2369514831
 21
163.7021147618
 31
0.0
  0
LINE
  5
108
330
1F
100
AcDbEntity
  8
OBRYS
100
AcDbLine
 10
136.9689085759
 20
169.5782349416
 30
0.0
 11
142.2369514831
 21
163.7021147618
 31
0.0
  0
LINE
  5
109
330
1F
100
AcDbEntity
  8
OBRYS
100
AcDbLine
 10
136.9435318984
 20
169.5615977952
 30
0.0
 11
142.2146146424
 21
163.6820913264
 31
0.0
  0
LINE
  5
10A
330
1F
100
AcDbEntity
  8
OBRYS
100
AcDbLine
 10
142.2146146424
 20
163.6820913264
 30
0.0
 11
142.1997227945
 21
163.668739886
 31
0.0
  0
LINE
  5
10B
330
1F
100
AcDbEntity
  8
OBRYS
100
AcDbLine
 10
136.9272970833
 20
169.5497439214
 30
0.0
 11
142.1997227945
 21
163.668739886
 31
0.0
  0
LINE
  5
10C
330
1F
100
AcDbEntity
  8
OBRYS
100
AcDbLine
 10
136.9039581396
 20
169.5308380732
 30
0.0
 11
142.1773859538
 21
163.6487127253
 31
0.0
  0
LINE
  5
10D
330
1F
100
AcDbEntity
  8
OBRYS
100
AcDbLine
 10
142.1773859538
 20
163.6487127253
 30
0.0
 11
142.1624941059
 21
163.6353650102
 31
0.0
  0
LINE
  5
10E
330
1F
100
AcDbEntity
  8
OBRYS
100
AcDbLine
 10
136.8890662916
 20
169.5174866328
 30
0.0
 11
142.1624941059
 21
163.6353650102
 31
0.0
  0
LINE
  5
10F
330
1F
100
AcDbEntity
  8
OBRYS
100
AcDbLine
 10
136.8677315541
 20
169.496341885
 30
0.0
 11
142.1401554026
 21
163.6153378495
 31
0.0
  0
LINE
  5
110
330
1F
100
AcDbEntity
  8
OBRYS
100
AcDbLine
 10
142.1401554026
 20
163.6153378495
 30
0.0
 11
142.1252635546
 21
163.6019864091
 31
0.0
  0
LINE
  5
111
330
1F
100
AcDbEntity
  8
OBRYS
100
AcDbLine
 10
136.8541808106
 20
169.4814966032
 30
0.0
 11
142.1252635546
 21
163.6019864091
 31
0.0
  0
LINE
  5
112
330
1F
100
AcDbEntity
  8
OBRYS
100
AcDbLine
 10
136.8348838069
 20
169.4580794284
 30
0.0
 11
142.102926714
 21
163.5819592485
 31
0.0
  0
LINE
  5
113
330
1F
100
AcDbEntity
  8
OBRYS
100
AcDbLine
 10
142.102926714
 20
163.5819592485
 30
0.0
 11
142.088034866
 21
163.5686115333
 31
0.0
  0
LINE
  5
114
330
1F
100
AcDbEntity
  8
OBRYS
100
AcDbLine
 10
136.8227188714
 20
169.441688151
 30
0.0
 11
142.088034866
 21
163.5686115333
 31
0.0
  0
LINE
  5
115
330
1F
100
AcDbEntity
  8
OBRYS
100
AcDbLine
 10
136.8055545963
 20
169.4158905157
 30
0.0
 11
142.0656980254
 21
163.5485843727
 31
0.0
  0
LINE
  5
116
330
1F
100
AcDbEntity
  8
OBRYS
100
AcDbLine
 10
142.0656980254
 20
163.5485843727
 30
0.0
 11
142.0508061774
 21
163.5352329323
 31
0.0
  0
LINE
  5
117
330
1F
100
AcDbEntity
  8
OBRYS
100
AcDbLine
 10
136.7948611505
 20
169.3978563854
 30
0.0
 11
142.0508061774
 21
163.5352329323
 31
0.0
  0
LINE
  5
118
330
1F
100
AcDbEntity
  8
OBRYS
100
AcDbLine
 10
136.7800102808
 20
169.3694808492
 30
0.0
 11
142.0284693368
 21
163.5152094969
 31
0.0
  0
LINE
  5
119
330
1F
100
AcDbEntity
  8
OBRYS
100
AcDbLine
 10
142.0284693368
 20
163.5152094969
 30
0.0
 11
142.0135774888
 21
163.5018580565
 31
0.0
  0
LINE
  5
11A
330
1F
100
AcDbEntity
  8
OBRYS
100
AcDbLine
 10
136.7709485121
 20
169.3496287772
 30
0.0
 11
142.0135774888
 21
163.5018580565
 31
0.0
  0
LINE
  5
11B
330
1F
100
AcDbEntity
  8
OBRYS
100
AcDbLine
 10
136.7587090708
 20
169.3183363387
 30
0.0
 11
141.9912387855
 21
163.4818308958
 31
0.0
  0
LINE
  5
11C
330
1F
100
AcDbEntity
  8
OBRYS
100
AcDbLine
 10
141.9912387855
 20
163.4818308958
 30
0.0
 11
141.9763488002
 21
163.4684794554
 31
0.0
  0
LINE
  5
11D
330
1F
100
AcDbEntity
  8
OBRYS
100
AcDbLine
 10
136.7515285738
 20
169.2963869282
 30
0.0
 11
141.9763488002
 21
163.4684794554
 31
0.0
  0
LINE
  5
11E
330
1F
100
AcDbEntity
  8
OBRYS
100
AcDbLine
 10
136.7423904367
 20
169.2616374203
 30
0.0
 11
141.9540100969
 21
163.44845602
 31
0.0
  0
LINE
  5
11F
330
1F
100
AcDbEntity
  8
OBRYS
100
AcDbLine
 10
141.9540100969
 20
163.44845602
 30
0.0
 11
141.939118249
 21
163.4351045796
 31
0.0
  0
LINE
  5
120
330
1F
100
AcDbEntity
  8
OBRYS
100
AcDbLine
 10
136.737517757
 20
169.237110109
 30
0.0
 11
141.939118249
 21
163.4351045796
 31
0.0
  0
LINE
  5
121
330
1F
100
AcDbEntity
  8
OBRYS
100
AcDbLine
 10
136.7323321529
 20
169.1979535827
 30
0.0
 11
141.9167814084
 21
163.415077419
 31
0.0
  0
LINE
  5
122
330
1F
100
AcDbEntity
  8
OBRYS
100
AcDbLine
 10
141.9167814084
 20
163.415077419
 30
0.0
 11
141.9018895604
 21
163.4017259785
 31
0.0
  0
LINE
  5
123
330
1F
100
AcDbEntity
  8
OBRYS
100
AcDbLine
 10
136.730536563
 20
169.169995279
 30
0.0
 11
141.9018895604
 21
163.4017259785
 31
0.0
  0
LINE
  5
124
330
1F
100
AcDbEntity
  8
OBRYS
100
AcDbLine
 10
136.7309593834
 20
169.124580265
 30
0.0
 11
141.8795527198
 21
163.3817025432
 31
0.0
  0
LINE
  5
125
330
1F
100
AcDbEntity
  8
OBRYS
100
AcDbLine
 10
141.8795527198
 20
163.3817025432
 30
0.0
 11
141.8646608718
 21
163.3683511028
 31
0.0
  0
LINE
  5
126
330
1F
100
AcDbEntity
  8
OBRYS
100
AcDbLine
 10
136.7338967748
 20
169.0913432249
 30
0.0
 11
141.8646608718
 21
163.3683511028
 31
0.0
  0
LINE
  5
127
330
1F
100
AcDbEntity
  8
OBRYS
100
AcDbLine
 10
136.7440649547
 20
169.0350615391
 30
0.0
 11
141.8423240312
 21
163.3483239421
 31
0.0
  0
LINE
  5
128
330
1F
100
AcDbEntity
  8
OBRYS
100
AcDbLine
 10
141.8423240312
 20
163.3483239421
 30
0.0
 11
141.8274321832
 21
163.334976227
 31
0.0
  0
LINE
  5
129
330
1F
100
AcDbEntity
  8
OBRYS
100
AcDbLine
 10
136.7568929918
 20
168.9907901892
 30
0.0
 11
141.8274321832
 21
163.334976227
 31
0.0
  0
LINE
  5
12A
330
1F
100
AcDbEntity
  8
OBRYS
100
AcDbLine
 10
136.1302097567
 20
166.9519462594
 30
0.0
 11
136.7302106001
 21
166.9519462594
 31
0.0
  0
ARC
  5
12B
330
1F
100
AcDbEntity
  8
OBRYS
100
AcDbCircle
 10
137.2302102901
 20
169.1519458362
 30
0.0
 40
0.500000000000041
100
AcDbArc
 50
133.0227798998
 51
136.4653536372
  0
ARC
  5
12C
330
1F
100
AcDbEntity
  8
OBRYS
100
AcDbCircle
 10
137.2302102901
 20
169.1519458362
 30
0.0
 40
0.5000000000000364
100
AcDbArc
 50
138.7688904808
 51
142.2465477069
  0
ARC
  5
12D
330
1F
100
AcDbEntity
  8
OBRYS
100
AcDbCircle
 10
137.2302102901
 20
169.1519458362
 30
0.0
 40
0.5000000000000187
100
AcDbArc
 50
144.5858208958
 51
148.1369926098
  0
LINE
  5
12E
330
1F
100
AcDbEntity
  8
OBRYS
100
AcDbLine
 10
137.4360171385
 20
168.1733534643
 30
0.0
 11
136.8579191394
 21
168.8181788632
 31
0.0
  0
ARC
  5
12F
330
1F
100
AcDbEntity
  8
OBRYS
100
AcDbCircle
 10
137.2302102901
 20
169.1519458362
 30
0.0
 40
0.5000000000000215
100
AcDbArc
 50
198.8028698358
 51
221.8767879015
  0
LINE
  5
130
330
1F
100
AcDbEntity
  8
OBRYS
100
AcDbLine
 10
137.6025022246
 20
169.4857099065
 30
0.0
 11
138.1806002237
 21
168.8408845076
 31
0.0
  0
ARC
  5
131
330
1F
100
AcDbEntity
  8
OBRYS
100
AcDbCircle
 10
137.2302102901
 20
169.1519458362
 30
0.0
 40
0.5000000000000334
100
AcDbArc
 50
170.1929223751
 51
174.7204309451
  0
LINE
  5
132
330
1F
100
AcDbEntity
  8
OBRYS
100
AcDbLine
 10
137.2302097507
 20
170.1519445488
 30
0.0
 11
136.7302106001
 21
170.1519445488
 31
0.0
  0
ARC
  5
133
330
1F
100
AcDbEntity
  8
OBRYS
100
AcDbCircle
 10
137.2302102901
 20
169.1519458362
 30
0.0
 40
0.5000000000000283
100
AcDbArc
 50
186.961581654
 51
193.5191513251
  0
LINE
  5
134
330
1F
100
AcDbEntity
  8
OBRYS
100
AcDbLine
 10
136.7302106001
 20
171.3519462356
 30
0.0
 11
136.1302097567
 21
171.3519462356
 31
0.0
  0
LINE
  5
135
330
1F
100
AcDbEntity
  8
OBRYS
100
AcDbLine
 10
136.1302097567
 20
171.3519462356
 30
0.0
 11
136.1302097567
 21
166.9519462594
 31
0.0
  0
ARC
  5
136
330
1F
100
AcDbEntity
  8
OBRYS
100
AcDbCircle
 10
137.2302102901
 20
169.1519458362
 30
0.0
 40
0.5000000000000003
100
AcDbArc
 50
41.8767879015
 51
64.9507059671
  0
ARC
  5
137
330
1F
100
AcDbEntity
  8
OBRYS
100
AcDbCircle
 10
137.2302102901
 20
169.1519458362
 30
0.0
 40
0.5000000000000169
100
AcDbArc
 50
70.2344244778
 51
76.7919941489
  0
ARC
  5
138
330
1F
100
AcDbEntity
  8
OBRYS
100
AcDbCircle
 10
137.2302102901
 20
169.1519458362
 30
0.0
 40
0.5000000000000204
100
AcDbArc
 50
80.6162124993
 51
85.8223074638
  0
ARC
  5
139
330
1F
100
AcDbEntity
  8
OBRYS
100
AcDbCircle
 10
137.2302102901
 20
169.1519458362
 30
0.0
 40
0.5000000000000233
100
AcDbArc
 50
89.0331448579
 51
93.5606534278
  0
ARC
  5
13A
330
1F
100
AcDbEntity
  8
OBRYS
100
AcDbCircle
 10
137.2302102901
 20
169.1519458362
 30
0.0
 40
0.5000000000000044
100
AcDbArc
 50
96.4262452623
 51
100.5445364039
  0
ARC
  5
13B
330
1F
100
AcDbEntity
  8
OBRYS
100
AcDbCircle
 10
137.2302102901
 20
169.1519458362
 30
0.0
 40
0.5000000000000286
100
AcDbArc
 50
103.1913858873
 51
107.0422004118
  0
ARC
  5
13C
330
1F
100
AcDbEntity
  8
OBRYS
100
AcDbCircle
 10
137.2302102901
 20
169.1519458362
 30
0.0
 40
0.5000000000000269
100
AcDbArc
 50
109.5431052436
 51
113.2138630165
  0
ARC
  5
13D
330
1F
100
AcDbEntity
  8
OBRYS
100
AcDbCircle
 10
137.2302102901
 20
169.1519458362
 30
0.0
 40
0.5000000000000182
100
AcDbArc
 50
115.6165831931
 51
119.1677549071
  0
ARC
  5
13E
330
1F
100
AcDbEntity
  8
OBRYS
100
AcDbCircle
 10
137.2302102901
 20
169.1519458362
 30
0.0
 40
0.5000000000000038
100
AcDbArc
 50
121.507028096
 51
124.9846853221
  0
ARC
  5
13F
330
1F
100
AcDbEntity
  8
OBRYS
100
AcDbCircle
 10
137.2302102901
 20
169.1519458362
 30
0.0
 40
0.5000000000000039
100
AcDbArc
 50
127.2882221657
 51
130.7307959031
  0
ARC
  5
140
330
1F
100
AcDbEntity
  8
OBRYS
100
AcDbCircle
 10
137.2302102901
 20
169.1519458362
 30
0.0
 40
0.5000000000000223
100
AcDbArc
 50
163.209039399
 51
167.3273305406
  0
ARC
  5
141
330
1F
100
AcDbEntity
  8
OBRYS
100
AcDbCircle
 10
137.2302102901
 20
169.1519458362
 30
0.0
 40
0.5000000000000302
100
AcDbArc
 50
150.5397127864
 51
154.2104705593
  0
ARC
  5
142
330
1F
100
AcDbEntity
  8
OBRYS
100
AcDbCircle
 10
137.2302102901
 20
169.1519458362
 30
0.0
 40
0.5000000000000309
100
AcDbArc
 50
177.9312683391
 51
183.1373633036
  0
ARC
  5
143
330
1F
100
AcDbEntity
  8
OBRYS
100
AcDbCircle
 10
137.2302102901
 20
169.1519458362
 30
0.0
 40
0.5000000000000112
100
AcDbArc
 50
156.7113753912
 51
160.5621899156
  0
LINE
  5
144
330
1F
100
AcDbEntity
  8
OBRYS
100
AcDbLine
 10
150.5802103557
 20
168.4912511119
 30
0.0
 11
145.8359749295
 21
167.5691970596
 31
0.0
  0
LINE
  5
145
330
1F
100
AcDbEntity
  8
OBRYS
100
AcDbLine
 10
145.8321583696
 20
167.5888293394
 30
0.0
 11
145.8359749295
 21
167.5691970596
 31
0.0
  0
LINE
  5
146
330
1F
100
AcDbEntity
  8
OBRYS
100
AcDbLine
 10
150.5802103557
 20
168.5116247246
 30
0.0
 11
145.8321583696
 21
167.5888293394
 31
0.0
  0
LINE
  5
147
330
1F
100
AcDbEntity
  8
OBRYS
100
AcDbLine
 10
150.5802103557
 20
168.5625159153
 30
0.0
 11
150.5802103557
 21
168.5116247246
 31
0.0
  0
LINE
  5
148
330
1F
100
AcDbEntity
  8
OBRYS
100
AcDbLine
 10
150.5802103557
 20
168.5625159153
 30
0.0
 11
145.7782943972
 21
167.7503579268
 31
0.0
  0
LINE
  5
149
330
1F
100
AcDbEntity
  8
OBRYS
100
AcDbLine
 10
145.7749583997
 20
167.7700796136
 30
0.0
 11
145.7782943972
 21
167.7503579268
 31
0.0
  0
LINE
  5
14A
330
1F
100
AcDbEntity
  8
OBRYS
100
AcDbLine
 10
150.5802103557
 20
168.582800121
 30
0.0
 11
145.7749583997
 21
167.7700796136
 31
0.0
  0
LINE
  5
14B
330
1F
100
AcDbEntity
  8
OBRYS
100
AcDbLine
 10
150.5802103557
 20
168.6540388474
 30
0.0
 11
150.5802103557
 21
168.582800121
 31
0.0
  0
LINE
  5
14C
330
1F
100
AcDbEntity
  8
OBRYS
100
AcDbLine
 10
150.5802103557
 20
168.6540388474
 30
0.0
 11
145.7249668665
 21
167.9534570286
 31
0.0
  0
LINE
  5
14D
330
1F
100
AcDbEntity
  8
OBRYS
100
AcDbLine
 10
145.7221114315
 20
167.9732532212
 30
0.0
 11
145.7249668665
 21
167.9534570286
 31
0.0
  0
LINE
  5
14E
330
1F
100
AcDbEntity
  8
OBRYS
100
AcDbLine
 10
150.5802103557
 20
168.6742485472
 30
0.0
 11
145.7221114315
 21
167.9732532212
 31
0.0
  0
LINE
  5
14F
330
1F
100
AcDbEntity
  8
OBRYS
100
AcDbLine
 10
150.5802103557
 20
168.7353991875
 30
0.0
 11
150.5802103557
 21
168.6742485472
 31
0.0
  0
LINE
  5
150
330
1F
100
AcDbEntity
  8
OBRYS
100
AcDbLine
 10
150.5802103557
 20
168.7353991875
 30
0.0
 11
145.6810792215
 21
168.1486063608
 31
0.0
  0
LINE
  5
151
330
1F
100
AcDbEntity
  8
OBRYS
100
AcDbLine
 10
145.6787006237
 20
168.1684621581
 30
0.0
 11
145.6810792215
 21
168.1486063608
 31
0.0
  0
LINE
  5
152
330
1F
100
AcDbEntity
  8
OBRYS
100
AcDbLine
 10
150.5802103557
 20
168.7555418321
 30
0.0
 11
145.6787006237
 21
168.1684621581
 31
0.0
  0
LINE
  5
153
330
1F
100
AcDbEntity
  8
OBRYS
100
AcDbLine
 10
150.5802103557
 20
168.8167371759
 30
0.0
 11
150.5802103557
 21
168.7555418321
 31
0.0
  0
LINE
  5
154
330
1F
100
AcDbEntity
  8
OBRYS
100
AcDbLine
 10
150.5802103557
 20
168.8167371759
 30
0.0
 11
145.6450333126
 21
168.3453463921
 31
0.0
  0
LINE
  5
155
330
1F
100
AcDbEntity
  8
OBRYS
100
AcDbLine
 10
145.6431315519
 20
168.3652580687
 30
0.0
 11
145.6450333126
 21
168.3453463921
 31
0.0
  0
LINE
  5
156
330
1F
100
AcDbEntity
  8
OBRYS
100
AcDbLine
 10
150.5802103557
 20
168.8368276664
 30
0.0
 11
145.6431315519
 21
168.3652580687
 31
0.0
  0
LINE
  5
157
330
1F
100
AcDbEntity
  8
OBRYS
100
AcDbLine
 10
150.5802103557
 20
168.8980565378
 30
0.0
 11
150.5802103557
 21
168.8368276664
 31
0.0
  0
LINE
  5
158
330
1F
100
AcDbEntity
  8
OBRYS
100
AcDbLine
 10
150.5802103557
 20
168.8980565378
 30
0.0
 11
145.6168850191
 21
168.5433716485
 31
0.0
  0
LINE
  5
159
330
1F
100
AcDbEntity
  8
OBRYS
100
AcDbLine
 10
145.6154582329
 20
168.563320578
 30
0.0
 11
145.6168850191
 21
168.5433716485
 31
0.0
  0
LINE
  5
15A
330
1F
100
AcDbEntity
  8
OBRYS
100
AcDbLine
 10
150.5802103557
 20
168.9181060502
 30
0.0
 11
145.6154582329
 21
168.563320578
 31
0.0
  0
LINE
  5
15B
330
1F
100
AcDbEntity
  8
OBRYS
100
AcDbLine
 10
150.5802103557
 20
168.9793647238
 30
0.0
 11
150.5802103557
 21
168.9181060502
 31
0.0
  0
LINE
  5
15C
330
1F
100
AcDbEntity
  8
OBRYS
100
AcDbLine
 10
150.5802103557
 20
168.9793647238
 30
0.0
 11
145.5966790445
 21
168.7423580298
 31
0.0
  0
LINE
  5
15D
330
1F
100
AcDbEntity
  8
OBRYS
100
AcDbLine
 10
145.5957290955
 20
168.7623330363
 30
0.0
 11
145.5966790445
 21
168.7423580298
 31
0.0
  0
LINE
  5
15E
330
1F
100
AcDbEntity
  8
OBRYS
100
AcDbLine
 10
150.5802103557
 20
168.9993844339
 30
0.0
 11
145.5957290955
 21
168.7623330363
 31
0.0
  0
LINE
  5
15F
330
1F
100
AcDbEntity
  8
OBRYS
100
AcDbLine
 10
150.5802103557
 20
169.0606580087
 30
0.0
 11
150.5802103557
 21
168.9993844339
 31
0.0
  0
LINE
  5
160
330
1F
100
AcDbEntity
  8
OBRYS
100
AcDbLine
 10
150.5802103557
 20
169.0606580087
 30
0.0
 11
145.5844470538
 21
168.9419888863
 31
0.0
  0
LINE
  5
161
330
1F
100
AcDbEntity
  8
OBRYS
100
AcDbLine
 10
145.5839720793
 20
168.9619825193
 30
0.0
 11
145.5844470538
 21
168.9419888863
 31
0.0
  0
LINE
  5
162
330
1F
100
AcDbEntity
  8
OBRYS
100
AcDbLine
 10
150.5802103557
 20
169.0806628176
 30
0.0
 11
145.5839720793
 21
168.9619825193
 31
0.0
  0
LINE
  5
163
330
1F
100
AcDbEntity
  8
OBRYS
100
AcDbLine
 10
150.5802103557
 20
169.1419475683
 30
0.0
 11
150.5802103557
 21
169.0806628176
 31
0.0
  0
LINE
  5
164
330
1F
100
AcDbEntity
  8
OBRYS
100
AcDbLine
 10
150.5802103557
 20
169.1419475683
 30
0.0
 11
145.5802095361
 21
169.1419475683
 31
0.0
  0
LINE
  5
165
330
1F
100
AcDbEntity
  8
OBRYS
100
AcDbLine
 10
145.5802095361
 20
169.1419475683
 30
0.0
 11
145.5802095361
 21
169.1619449267
 31
0.0
  0
LINE
  5
166
330
1F
100
AcDbEntity
  8
OBRYS
100
AcDbLine
 10
150.5802103557
 20
169.1619449267
 30
0.0
 11
145.5802095361
 21
169.1619449267
 31
0.0
  0
LINE
  5
167
330
1F
100
AcDbEntity
  8
OBRYS
100
AcDbLine
 10
150.5802103557
 20
169.2232259521
 30
0.0
 11
145.5839720793
 21
169.3419099757
 31
0.0
  0
LINE
  5
168
330
1F
100
AcDbEntity
  8
OBRYS
100
AcDbLine
 10
145.5839720793
 20
169.3419099757
 30
0.0
 11
145.5844470538
 21
169.3619036087
 31
0.0
  0
LINE
  5
169
330
1F
100
AcDbEntity
  8
OBRYS
100
AcDbLine
 10
150.5802103557
 20
169.2432344863
 30
0.0
 11
145.5844470538
 21
169.3619036087
 31
0.0
  0
LINE
  5
16A
330
1F
100
AcDbEntity
  8
OBRYS
100
AcDbLine
 10
150.5802103557
 20
169.3045043358
 30
0.0
 11
150.5802103557
 21
169.2432344863
 31
0.0
  0
LINE
  5
16B
330
1F
100
AcDbEntity
  8
OBRYS
100
AcDbLine
 10
150.5802103557
 20
169.3045043358
 30
0.0
 11
145.5957290955
 21
169.5415557334
 31
0.0
  0
LINE
  5
16C
330
1F
100
AcDbEntity
  8
OBRYS
100
AcDbLine
 10
145.5957290955
 20
169.5415557334
 30
0.0
 11
145.5966790445
 21
169.5615344652
 31
0.0
  0
LINE
  5
16D
330
1F
100
AcDbEntity
  8
OBRYS
100
AcDbLine
 10
150.5802103557
 20
169.3245277712
 30
0.0
 11
145.5966790445
 21
169.5615344652
 31
0.0
  0
LINE
  5
16E
330
1F
100
AcDbEntity
  8
OBRYS
100
AcDbLine
 10
150.5802103557
 20
169.3857827195
 30
0.0
 11
150.5802103557
 21
169.3245277712
 31
0.0
  0
LINE
  5
16F
330
1F
100
AcDbEntity
  8
OBRYS
100
AcDbLine
 10
150.5802103557
 20
169.3857827195
 30
0.0
 11
145.6154582329
 21
169.740571917
 31
0.0
  0
LINE
  5
170
330
1F
100
AcDbEntity
  8
OBRYS
100
AcDbLine
 10
145.6154582329
 20
169.740571917
 30
0.0
 11
145.6168850191
 21
169.7605208465
 31
0.0
  0
LINE
  5
171
330
1F
100
AcDbEntity
  8
OBRYS
100
AcDbLine
 10
150.5802103557
 20
169.4058359572
 30
0.0
 11
145.6168850191
 21
169.7605208465
 31
0.0
  0
LINE
  5
172
330
1F
100
AcDbEntity
  8
OBRYS
100
AcDbLine
 10
150.5802103557
 20
169.4670648286
 30
0.0
 11
150.5802103557
 21
169.4058359572
 31
0.0
  0
LINE
  5
173
330
1F
100
AcDbEntity
  8
OBRYS
100
AcDbLine
 10
150.5802103557
 20
169.4670648286
 30
0.0
 11
145.6431315519
 21
169.9386344263
 31
0.0
  0
LINE
  5
174
330
1F
100
AcDbEntity
  8
OBRYS
100
AcDbLine
 10
145.6431315519
 20
169.9386344263
 30
0.0
 11
145.6450333126
 21
169.9585423776
 31
0.0
  0
LINE
  5
175
330
1F
100
AcDbEntity
  8
OBRYS
100
AcDbLine
 10
150.5802103557
 20
169.4871553191
 30
0.0
 11
145.6450333126
 21
169.9585423776
 31
0.0
  0
LINE
  5
176
330
1F
100
AcDbEntity
  8
OBRYS
100
AcDbLine
 10
150.5802103557
 20
169.5483506629
 30
0.0
 11
150.5802103557
 21
169.4871553191
 31
0.0
  0
LINE
  5
177
330
1F
100
AcDbEntity
  8
OBRYS
100
AcDbLine
 10
150.5802103557
 20
169.5483506629
 30
0.0
 11
145.6787006237
 21
170.1354303369
 31
0.0
  0
LINE
  5
178
330
1F
100
AcDbEntity
  8
OBRYS
100
AcDbLine
 10
145.6787006237
 20
170.1354303369
 30
0.0
 11
145.6810792215
 21
170.1552861342
 31
0.0
  0
LINE
  5
179
330
1F
100
AcDbEntity
  8
OBRYS
100
AcDbLine
 10
150.5802103557
 20
169.5684933075
 30
0.0
 11
145.6810792215
 21
170.1552861342
 31
0.0
  0
LINE
  5
17A
330
1F
100
AcDbEntity
  8
OBRYS
100
AcDbLine
 10
150.5802103557
 20
169.6296439478
 30
0.0
 11
150.5802103557
 21
169.5684933075
 31
0.0
  0
LINE
  5
17B
330
1F
100
AcDbEntity
  8
OBRYS
100
AcDbLine
 10
150.5802103557
 20
169.6296439478
 30
0.0
 11
145.7221114315
 21
170.3306392738
 31
0.0
  0
LINE
  5
17C
330
1F
100
AcDbEntity
  8
OBRYS
100
AcDbLine
 10
145.7221114315
 20
170.3306392738
 30
0.0
 11
145.7249668665
 21
170.3504354665
 31
0.0
  0
LINE
  5
17D
330
1F
100
AcDbEntity
  8
OBRYS
100
AcDbLine
 10
150.5802103557
 20
169.6498499223
 30
0.0
 11
145.7249668665
 21
170.3504354665
 31
0.0
  0
LINE
  5
17E
330
1F
100
AcDbEntity
  8
OBRYS
100
AcDbLine
 10
150.5802103557
 20
169.7210886487
 30
0.0
 11
150.5802103557
 21
169.6498499223
 31
0.0
  0
LINE
  5
17F
330
1F
100
AcDbEntity
  8
OBRYS
100
AcDbLine
 10
150.5802103557
 20
169.7210886487
 30
0.0
 11
145.7749583997
 21
170.5338128814
 31
0.0
  0
LINE
  5
180
330
1F
100
AcDbEntity
  8
OBRYS
100
AcDbLine
 10
145.7749583997
 20
170.5338128814
 30
0.0
 11
145.7782943972
 21
170.5535345682
 31
0.0
  0
LINE
  5
181
330
1F
100
AcDbEntity
  8
OBRYS
100
AcDbLine
 10
150.5802103557
 20
169.7413728544
 30
0.0
 11
145.7782943972
 21
170.5535345682
 31
0.0
  0
LINE
  5
182
330
1F
100
AcDbEntity
  8
OBRYS
100
AcDbLine
 10
150.5802103557
 20
169.7922677705
 30
0.0
 11
150.5802103557
 21
169.7413728544
 31
0.0
  0
LINE
  5
183
330
1F
100
AcDbEntity
  8
OBRYS
100
AcDbLine
 10
150.5802103557
 20
169.7922677705
 30
0.0
 11
145.8321583696
 21
170.7150631556
 31
0.0
  0
LINE
  5
184
330
1F
100
AcDbEntity
  8
OBRYS
100
AcDbLine
 10
145.8321583696
 20
170.7150631556
 30
0.0
 11
145.8359749295
 21
170.7346954355
 31
0.0
  0
LINE
  5
185
330
1F
100
AcDbEntity
  8
OBRYS
100
AcDbLine
 10
150.5802103557
 20
169.8126413831
 30
0.0
 11
145.8359749295
 21
170.7346954355
 31
0.0
  0
LINE
  5
186
330
1F
100
AcDbEntity
  8
OBRYS
100
AcDbLine
 10
150.5802103557
 20
169.8736020335
 30
0.0
 11
150.5802103557
 21
169.8126413831
 31
0.0
  0
LINE
  5
187
330
1F
100
AcDbEntity
  8
OBRYS
100
AcDbLine
 10
150.5802103557
 20
169.8736020335
 30
0.0
 11
145.8986194112
 21
170.9036634275
 31
0.0
  0
LINE
  5
188
330
1F
100
AcDbEntity
  8
OBRYS
100
AcDbLine
 10
145.8986194112
 20
170.9036634275
 30
0.0
 11
145.9029165335
 21
170.9231951246
 31
0.0
  0
LINE
  5
189
330
1F
100
AcDbEntity
  8
OBRYS
100
AcDbLine
 10
150.5802103557
 20
169.8940799543
 30
0.0
 11
145.9029165335
 21
170.9231951246
 31
0.0
  0
LINE
  5
18A
330
1F
100
AcDbEntity
  8
OBRYS
100
AcDbLine
 10
150.5802103557
 20
171.3519462356
 30
0.0
 11
150.5802103557
 21
169.8940799543
 31
0.0
  0
LINE
  5
18B
330
1F
100
AcDbEntity
  8
OBRYS
100
AcDbLine
 10
151.380209928
 20
171.3519462356
 30
0.0
 11
150.5802103557
 21
171.3519462356
 31
0.0
  0
LINE
  5
18C
330
1F
100
AcDbEntity
  8
OBRYS
100
AcDbLine
 10
151.380209928
 20
166.9519462594
 30
0.0
 11
151.380209928
 21
171.3519462356
 31
0.0
  0
LINE
  5
18D
330
1F
100
AcDbEntity
  8
OBRYS
100
AcDbLine
 10
150.5802103557
 20
166.9519462594
 30
0.0
 11
151.380209928
 21
166.9519462594
 31
0.0
  0
LINE
  5
18E
330
1F
100
AcDbEntity
  8
OBRYS
100
AcDbLine
 10
150.5802103557
 20
168.4098088154
 30
0.0
 11
150.5802103557
 21
166.9519462594
 31
0.0
  0
LINE
  5
18F
330
1F
100
AcDbEntity
  8
OBRYS
100
AcDbLine
 10
150.5802103557
 20
168.4098088154
 30
0.0
 11
145.9029165335
 21
167.3806973705
 31
0.0
  0
LINE
  5
190
330
1F
100
AcDbEntity
  8
OBRYS
100
AcDbLine
 10
145.8986194112
 20
167.4002290675
 30
0.0
 11
145.9029165335
 21
167.3806973705
 31
0.0
  0
LINE
  5
191
330
1F
100
AcDbEntity
  8
OBRYS
100
AcDbLine
 10
150.5802103557
 20
168.4302904615
 30
0.0
 11
145.8986194112
 21
167.4002290675
 31
0.0
  0
LINE
  5
192
330
1F
100
AcDbEntity
  8
OBRYS
100
AcDbLine
 10
150.5802103557
 20
168.4912511119
 30
0.0
 11
150.5802103557
 21
168.4302904615
 31
0.0
  0
LINE
  5
193
330
1F
100
AcDbEntity
  8
OBRYS
100
AcDbLine
 10
150.5802103557
 20
169.2232259521
 30
0.0
 11
150.5802103557
 21
169.1619449267
 31
0.0
  0
ARC
  5
194
330
1F
100
AcDbEntity
  8
OBRYS
100
AcDbCircle
 10
156.3802102901
 20
121.7519458362
 30
0.0
 40
0.5000000000000284
100
AcDbArc
 50
270.0
 51
0.0
  0
ARC
  5
195
330
1F
100
AcDbEntity
  8
OBRYS
100
AcDbCircle
 10
136.3802102901
 20
145.2519458362
 30
0.0
 40
0.5
100
AcDbArc
 50
90.0
 51
180.0
  0
ARC
  5
196
330
1F
100
AcDbEntity
  8
OBRYS
100
AcDbCircle
 10
139.2802102901
 20
141.2519458362
 30
0.0
 40
0.5
100
AcDbArc
 50
0.0
 51
90.0
  0
ARC
  5
197
330
1F
100
AcDbEntity
  8
OBRYS
100
AcDbCircle
 10
139.2802102901
 20
125.7519458362
 30
0.0
 40
0.5
100
AcDbArc
 50
270.0
 51
0.0
  0
ARC
  5
198
330
1F
100
AcDbEntity
  8
OBRYS
100
AcDbCircle
 10
171.9802102901
 20
121.7519458362
 30
0.0
 40
0.5
100
AcDbArc
 50
270.0
 51
0.0
  0
ARC
  5
199
330
1F
100
AcDbEntity
  8
OBRYS
100
AcDbCircle
 10
158.5802102901
 20
145.2519458362
 30
0.0
 40
0.5
100
AcDbArc
 50
90.0
 51
180.0
  0
ARC
  5
19A
330
1F
100
AcDbEntity
  8
OBRYS
100
AcDbCircle
 10
137.4802102901
 20
171.1519458362
 30
0.0
 40
0.5
100
AcDbArc
 50
180.0
 51
270.0
  0
ARC
  5
19B
330
1F
100
AcDbEntity
  8
OBRYS
100
AcDbCircle
 10
136.3802102901
 20
171.3519458362
 30
0.0
 40
0.5
100
AcDbArc
 50
90.0
 51
180.0
  0
ARC
  5
19C
330
1F
100
AcDbEntity
  8
OBRYS
100
AcDbCircle
 10
136.3802102901
 20
166.9519458362
 30
0.0
 40
0.5
100
AcDbArc
 50
180.0
 51
270.0
  0
ARC
  5
19D
330
1F
100
AcDbEntity
  8
OBRYS
100
AcDbCircle
 10
137.6802102901
 20
165.7519458362
 30
0.0
 40
0.5
100
AcDbArc
 50
270.0
 51
0.0
  0
ARC
  5
19E
330
1F
100
AcDbEntity
  8
OBRYS
100
AcDbCircle
 10
150.6802102901
 20
148.0519458362
 30
0.0
 40
1.0
100
AcDbArc
 50
270.0
 51
0.0
  0
ARC
  5
19F
330
1F
100
AcDbEntity
  8
OBRYS
100
AcDbCircle
 10
151.1802102901
 20
164.7519458362
 30
0.0
 40
0.5
100
AcDbArc
 50
0.0
 51
90.0
  0
ARC
  5
1A0
330
1F
100
AcDbEntity
  8
OBRYS
100
AcDbCircle
 10
151.0802102901
 20
171.3519458362
 30
0.0
 40
0.5
100
AcDbArc
 50
90.0
 51
180.0
  0
ARC
  5
1A1
330
1F
100
AcDbEntity
  8
OBRYS
100
AcDbCircle
 10
150.0802102901
 20
171.1519458362
 30
0.0
 40
0.5
100
AcDbArc
 50
270.0
 51
0.0
  0
ARC
  5
1A2
330
1F
100
AcDbEntity
  8
OBRYS
100
AcDbCircle
 10
154.6802102901
 20
171.1519458362
 30
0.0
 40
0.5
100
AcDbArc
 50
270.0
 51
0.0
  0
ARC
  5
1A3
330
1F
100
AcDbEntity
  8
OBRYS
100
AcDbCircle
 10
154.4802102901
 20
171.1519458362
 30
0.0
 40
0.5
100
AcDbArc
 50
180.0
 51
270.0
  0
ARC
  5
1A4
330
1F
100
AcDbEntity
  8
OBRYS
100
AcDbCircle
 10
153.3802102901
 20
171.3519458362
 30
0.0
 40
0.5
100
AcDbArc
 50
90.0
 51
180.0
  0
ARC
  5
1A5
330
1F
100
AcDbEntity
  8
OBRYS
100
AcDbCircle
 10
154.4802102901
 20
167.1519458362
 30
0.0
 40
0.5
100
AcDbArc
 50
90.0
 51
180.0
  0
ARC
  5
1A6
330
1F
100
AcDbEntity
  8
OBRYS
100
AcDbCircle
 10
154.6802102901
 20
165.7519458362
 30
0.0
 40
0.5
100
AcDbArc
 50
270.0
 51
0.0
  0
ARC
  5
1A7
330
1F
100
AcDbEntity
  8
OBRYS
100
AcDbCircle
 10
162.6802102901
 20
147.5019458362
 30
0.0
 40
0.7500000000000284
100
AcDbArc
 50
216.8698976458
 51
323.1301023542
  0
ARC
  5
1A8
330
1F
100
AcDbEntity
  8
OBRYS
100
AcDbCircle
 10
171.4802102901
 20
148.0519458362
 30
0.0
 40
1.0
100
AcDbArc
 50
270.0
 51
0.0
  0
ARC
  5
1A9
330
1F
100
AcDbEntity
  8
OBRYS
100
AcDbCircle
 10
171.9802102901
 20
164.7519458362
 30
0.0
 40
0.5
100
AcDbArc
 50
0.0
 51
90.0
  0
ARC
  5
1AA
330
1F
100
AcDbEntity
  8
OBRYS
100
AcDbCircle
 10
171.9802102901
 20
166.9519458362
 30
0.0
 40
0.5
100
AcDbArc
 50
270.0
 51
0.0
  0
ARC
  5
1AB
330
1F
100
AcDbEntity
  8
OBRYS
100
AcDbCircle
 10
170.8802102901
 20
171.1519458362
 30
0.0
 40
0.5
100
AcDbArc
 50
270.0
 51
0.0
  0
ARC
  5
1AC
330
1F
100
AcDbEntity
  8
OBRYS
100
AcDbCircle
 10
170.6802102901
 20
171.1519458362
 30
0.0
 40
0.5
100
AcDbArc
 50
180.0
 51
270.0
  0
ARC
  5
1AD
330
1F
100
AcDbEntity
  8
OBRYS
100
AcDbCircle
 10
173.1802102901
 20
172.5519458362
 30
0.0
 40
0.5
100
AcDbArc
 50
0.0
 51
90.0
  0
ARC
  5
1AE
330
1F
100
AcDbEntity
  8
OBRYS
100
AcDbCircle
 10
173.1802102901
 20
120.5519458362
 30
0.0
 40
0.5
100
AcDbArc
 50
270.0
 51
0.0
  0
ARC
  5
1AF
330
1F
100
AcDbEntity
  8
OBRYS
100
AcDbCircle
 10
171.8802102901
 20
171.3519458362
 30
0.0
 40
0.5
100
AcDbArc
 50
90.0
 51
180.0
  0
ARC
  5
1B0
330
1F
100
AcDbEntity
  8
OBRYS
100
AcDbCircle
 10
153.4802102901
 20
171.3519458362
 30
0.0
 40
0.5
100
AcDbArc
 50
0.0
 51
90.0
  0
LINE
  5
1B1
330
1F
100
AcDbEntity
  8
OBRYS
100
AcDbLine
 10
158.080210188
 20
121.7519458588
 30
0.0
 11
158.080210188
 21
145.251945869
 31
0.0
  0
LINE
  5
1B2
330
1F
100
AcDbEntity
  8
OBRYS
100
AcDbLine
 10
150.0802102737
 20
167.651946933
 30
0.0
 11
149.8802106135
 21
167.651946933
 31
0.0
  0
LINE
  5
1B3
330
1F
100
AcDbEntity
  8
OBRYS
100
AcDbLine
 10
150.5802103557
 20
166.9519462594
 30
0.0
 11
150.5802103557
 21
167.1519459197
 31
0.0
  0
ARC
  5
1B4
330
1F
100
AcDbEntity
  8
OBRYS
100
AcDbCircle
 10
135.1802102901
 20
120.5519458362
 30
0.0
 40
0.5
100
AcDbArc
 50
180.0
 51
270.0
  0
ARC
  5
1B5
330
1F
100
AcDbEntity
  8
OBRYS
100
AcDbCircle
 10
151.0802102901
 20
166.9519458362
 30
0.0
 40
0.5
100
AcDbArc
 50
180.0
 51
270.0
  0
LINE
  5
1B6
330
1F
100
AcDbEntity
  8
OBRYS
100
AcDbLine
 10
151.1802102678
 20
171.8519472489
 30
0.0
 11
151.0802104376
 21
171.8519472489
 31
0.0
  0
LINE
  5
1B7
330
1F
100
AcDbEntity
  8
OBRYS
100
AcDbLine
 10
150.5802103557
 20
171.3519462356
 30
0.0
 11
150.5802103557
 21
171.1519465753
 31
0.0
  0
LINE
  5
1B8
330
1F
100
AcDbEntity
  8
OBRYS
100
AcDbLine
 10
150.0802102737
 20
170.6519455621
 30
0.0
 11
149.8802106135
 21
170.6519455621
 31
0.0
  0
ARC
  5
1B9
330
1F
100
AcDbEntity
  8
OBRYS
100
AcDbCircle
 10
137.6802102901
 20
171.1519458362
 30
0.0
 40
0.5
100
AcDbArc
 50
270.0
 51
0.0
  0
ARC
  5
1BA
330
1F
100
AcDbEntity
  8
OBRYS
100
AcDbCircle
 10
158.5802102901
 20
121.7519458362
 30
0.0
 40
0.5
100
AcDbArc
 50
180.0
 51
270.0
  0
LINE
  5
1BB
330
1F
100
AcDbEntity
  8
OBRYS
100
AcDbLine
 10
155.1802104578
 20
171.1519465753
 30
0.0
 11
155.1802104578
 21
172.5519441971
 31
0.0
  0
LINE
  5
1BC
330
1F
100
AcDbEntity
  8
OBRYS
100
AcDbLine
 10
154.4802102499
 20
170.6519455621
 30
0.0
 11
154.6802099101
 21
170.6519455621
 31
0.0
  0
LINE
  5
1BD
330
1F
100
AcDbEntity
  8
OBRYS
100
AcDbLine
 10
153.9802101679
 20
171.3519462356
 30
0.0
 11
153.9802101679
 21
171.1519465753
 31
0.0
  0
ARC
  5
1BE
330
1F
100
AcDbEntity
  8
OBRYS
100
AcDbCircle
 10
136.4802102901
 20
171.3519458362
 30
0.0
 40
0.5
100
AcDbArc
 50
0.0
 51
90.0
  0
ARC
  5
1BF
330
1F
100
AcDbEntity
  8
OBRYS
100
AcDbCircle
 10
170.8802102901
 20
167.1519458362
 30
0.0
 40
0.5
100
AcDbArc
 50
0.0
 51
90.0
  0
ARC
  5
1C0
330
1F
100
AcDbEntity
  8
OBRYS
100
AcDbCircle
 10
149.8802102901
 20
165.7519458362
 30
0.0
 40
0.5
100
AcDbArc
 50
180.0
 51
270.0
  0
LINE
  5
1C1
330
1F
100
AcDbEntity
  8
OBRYS
100
AcDbLine
 10
153.9802101679
 20
166.9519462594
 30
0.0
 11
153.9802101679
 21
167.1519459197
 31
0.0
  0
LINE
  5
1C2
330
1F
100
AcDbEntity
  8
OBRYS
100
AcDbLine
 10
154.4802102499
 20
167.651946933
 30
0.0
 11
154.6802099101
 21
167.651946933
 31
0.0
  0
LINE
  5
1C3
330
1F
100
AcDbEntity
  8
OBRYS
100
AcDbLine
 10
155.1802104578
 20
167.1519459197
 30
0.0
 11
155.1802104578
 21
165.7519445726
 31
0.0
  0
LINE
  5
1C4
330
1F
100
AcDbEntity
  8
OBRYS
100
AcDbLine
 10
154.6802099101
 20
165.2519472846
 30
0.0
 11
153.3802102558
 21
165.2519472846
 31
0.0
  0
LINE
  5
1C5
330
1F
100
AcDbEntity
  8
OBRYS
100
AcDbLine
 10
152.8802101739
 20
148.0519467005
 30
0.0
 11
152.8802101739
 21
164.7519462713
 31
0.0
  0
LINE
  5
1C6
330
1F
100
AcDbEntity
  8
OBRYS
100
AcDbLine
 10
163.2802103186
 20
147.0519465366
 30
0.0
 11
171.4802102424
 21
147.0519465366
 31
0.0
  0
LINE
  5
1C7
330
1F
100
AcDbEntity
  8
OBRYS
100
AcDbLine
 10
172.4802104063
 20
164.7519462713
 30
0.0
 11
172.4802104063
 21
148.0519467005
 31
0.0
  0
LINE
  5
1C8
330
1F
100
AcDbEntity
  8
OBRYS
100
AcDbLine
 10
170.6802106701
 20
165.2519472846
 30
0.0
 11
171.9802103244
 21
165.2519472846
 31
0.0
  0
LINE
  5
1C9
330
1F
100
AcDbEntity
  8
OBRYS
100
AcDbLine
 10
170.1802101225
 20
167.1519459197
 30
0.0
 11
170.1802101225
 21
165.7519445726
 31
0.0
  0
LINE
  5
1CA
330
1F
100
AcDbEntity
  8
OBRYS
100
AcDbLine
 10
170.8802103303
 20
167.651946933
 30
0.0
 11
170.6802106701
 21
167.651946933
 31
0.0
  0
LINE
  5
1CB
330
1F
100
AcDbEntity
  8
OBRYS
100
AcDbLine
 10
171.3802104123
 20
166.9519462594
 30
0.0
 11
171.3802104123
 21
167.1519459197
 31
0.0
  0
LINE
  5
1CC
330
1F
100
AcDbEntity
  8
OBRYS
100
AcDbLine
 10
171.9802103244
 20
166.4519452461
 30
0.0
 11
171.8802104943
 21
166.4519452461
 31
0.0
  0
LINE
  5
1CD
330
1F
100
AcDbEntity
  8
OBRYS
100
AcDbLine
 10
172.4802104063
 20
171.3519462356
 30
0.0
 11
172.4802104063
 21
166.9519462594
 31
0.0
  0
LINE
  5
1CE
330
1F
100
AcDbEntity
  8
OBRYS
100
AcDbLine
 10
171.8802104943
 20
171.8519472489
 30
0.0
 11
171.9802103244
 21
171.8519472489
 31
0.0
  0
LINE
  5
1CF
330
1F
100
AcDbEntity
  8
OBRYS
100
AcDbLine
 10
171.3802104123
 20
171.1519465753
 30
0.0
 11
171.3802104123
 21
171.3519462356
 31
0.0
  0
LINE
  5
1D0
330
1F
100
AcDbEntity
  8
OBRYS
100
AcDbLine
 10
170.6802106701
 20
170.6519455621
 30
0.0
 11
170.8802103303
 21
170.6519455621
 31
0.0
  0
LINE
  5
1D1
330
1F
100
AcDbEntity
  8
OBRYS
100
AcDbLine
 10
170.1802101225
 20
172.5519441971
 30
0.0
 11
170.1802101225
 21
171.1519465753
 31
0.0
  0
LINE
  5
1D2
330
1F
100
AcDbEntity
  8
OBRYS
100
AcDbLine
 10
173.1802101486
 20
173.0519452104
 30
0.0
 11
170.6802106701
 21
173.0519452104
 31
0.0
  0
LINE
  5
1D3
330
1F
100
AcDbEntity
  8
OBRYS
100
AcDbLine
 10
173.6802102305
 20
120.55194586
 30
0.0
 11
173.6802102305
 21
172.5519441971
 31
0.0
  0
LINE
  5
1D4
330
1F
100
AcDbEntity
  8
OBRYS
100
AcDbLine
 10
135.1802104391
 20
120.0519458362
 30
0.0
 11
173.1802101486
 21
120.0519458362
 31
0.0
  0
LINE
  5
1D5
330
1F
100
AcDbEntity
  8
OBRYS
100
AcDbLine
 10
153.3802102558
 20
166.4519452461
 30
0.0
 11
153.480210086
 21
166.4519452461
 31
0.0
  0
LINE
  5
1D6
330
1F
100
AcDbEntity
  8
OBRYS
100
AcDbLine
 10
137.6802099176
 20
173.0519452104
 30
0.0
 11
135.1802104391
 21
173.0519452104
 31
0.0
  0
LINE
  5
1D7
330
1F
100
AcDbEntity
  8
OBRYS
100
AcDbLine
 10
138.1802109309
 20
171.1519465753
 30
0.0
 11
138.1802109309
 21
172.5519441971
 31
0.0
  0
LINE
  5
1D8
330
1F
100
AcDbEntity
  8
OBRYS
100
AcDbLine
 10
137.4802102573
 20
170.6519455621
 30
0.0
 11
137.6802099176
 21
170.6519455621
 31
0.0
  0
LINE
  5
1D9
330
1F
100
AcDbEntity
  8
OBRYS
100
AcDbLine
 10
136.9802111067
 20
171.3519462356
 30
0.0
 11
136.9802111067
 21
171.1519465753
 31
0.0
  0
LINE
  5
1DA
330
1F
100
AcDbEntity
  8
OBRYS
100
AcDbLine
 10
136.3802102633
 20
171.8519472489
 30
0.0
 11
136.4802100934
 21
171.8519472489
 31
0.0
  0
LINE
  5
1DB
330
1F
100
AcDbEntity
  8
OBRYS
100
AcDbLine
 10
135.8802111127
 20
166.9519462594
 30
0.0
 11
135.8802111127
 21
171.3519462356
 31
0.0
  0
LINE
  5
1DC
330
1F
100
AcDbEntity
  8
OBRYS
100
AcDbLine
 10
136.4802100934
 20
166.4519452461
 30
0.0
 11
136.3802102633
 21
166.4519452461
 31
0.0
  0
LINE
  5
1DD
330
1F
100
AcDbEntity
  8
OBRYS
100
AcDbLine
 10
136.9802111067
 20
167.1519459197
 30
0.0
 11
136.9802111067
 21
166.9519462594
 31
0.0
  0
LINE
  5
1DE
330
1F
100
AcDbEntity
  8
OBRYS
100
AcDbLine
 10
137.6802099176
 20
167.651946933
 30
0.0
 11
137.4802102573
 21
167.651946933
 31
0.0
  0
LINE
  5
1DF
330
1F
100
AcDbEntity
  8
OBRYS
100
AcDbLine
 10
138.1802109309
 20
165.7519445726
 30
0.0
 11
138.1802109309
 21
167.1519459197
 31
0.0
  0
LINE
  5
1E0
330
1F
100
AcDbEntity
  8
OBRYS
100
AcDbLine
 10
136.3802102633
 20
165.2519472846
 30
0.0
 11
137.6802099176
 21
165.2519472846
 31
0.0
  0
LINE
  5
1E1
330
1F
100
AcDbEntity
  8
OBRYS
100
AcDbLine
 10
135.8802111127
 20
148.0519467005
 30
0.0
 11
135.8802111127
 21
164.7519462713
 31
0.0
  0
LINE
  5
1E2
330
1F
100
AcDbEntity
  8
OBRYS
100
AcDbLine
 10
150.6802101858
 20
147.0519465366
 30
0.0
 11
136.8802094139
 21
147.0519465366
 31
0.0
  0
LINE
  5
1E3
330
1F
100
AcDbEntity
  8
OBRYS
100
AcDbLine
 10
151.6802103497
 20
164.7519462713
 30
0.0
 11
151.6802103497
 21
148.0519467005
 31
0.0
  0
LINE
  5
1E4
330
1F
100
AcDbEntity
  8
OBRYS
100
AcDbLine
 10
149.8802106135
 20
165.2519472846
 30
0.0
 11
151.1802102678
 21
165.2519472846
 31
0.0
  0
LINE
  5
1E5
330
1F
100
AcDbEntity
  8
OBRYS
100
AcDbLine
 10
171.9802103244
 20
121.2519458932
 30
0.0
 11
158.58021027
 21
121.2519458932
 31
0.0
  0
LINE
  5
1E6
330
1F
100
AcDbEntity
  8
OBRYS
100
AcDbLine
 10
172.4802104063
 20
145.251945869
 30
0.0
 11
172.4802104063
 21
121.7519458588
 31
0.0
  0
LINE
  5
1E7
330
1F
100
AcDbEntity
  8
OBRYS
100
AcDbLine
 10
158.58021027
 20
145.7519450196
 30
0.0
 11
171.9802103244
 21
145.7519450196
 31
0.0
  0
LINE
  5
1E8
330
1F
100
AcDbEntity
  8
OBRYS
100
AcDbLine
 10
135.8802111127
 20
141.7519462266
 30
0.0
 11
135.8802111127
 21
145.251945869
 31
0.0
  0
LINE
  5
1E9
330
1F
100
AcDbEntity
  8
OBRYS
100
AcDbLine
 10
139.2802109249
 20
141.7519462266
 30
0.0
 11
135.8802111127
 21
141.7519462266
 31
0.0
  0
LINE
  5
1EA
330
1F
100
AcDbEntity
  8
OBRYS
100
AcDbLine
 10
134.6802094258
 20
120.55194586
 30
0.0
 11
134.6802094258
 21
172.5519441971
 31
0.0
  0
LINE
  5
1EB
330
1F
100
AcDbEntity
  8
OBRYS
100
AcDbLine
 10
135.8802111127
 20
140.5519464025
 30
0.0
 11
139.2802109249
 21
140.5519464025
 31
0.0
  0
LINE
  5
1EC
330
1F
100
AcDbEntity
  8
OBRYS
100
AcDbLine
 10
135.8802111127
 20
126.4519456746
 30
0.0
 11
135.8802111127
 21
140.5519464025
 31
0.0
  0
LINE
  5
1ED
330
1F
100
AcDbEntity
  8
OBRYS
100
AcDbLine
 10
139.2802109249
 20
126.4519456746
 30
0.0
 11
135.8802111127
 21
126.4519456746
 31
0.0
  0
LINE
  5
1EE
330
1F
100
AcDbEntity
  8
OBRYS
100
AcDbLine
 10
139.7802100755
 20
125.7519459323
 30
0.0
 11
139.7802100755
 21
125.9519460583
 31
0.0
  0
LINE
  5
1EF
330
1F
100
AcDbEntity
  8
OBRYS
100
AcDbLine
 10
135.8802111127
 20
125.2519458504
 30
0.0
 11
139.2802109249
 21
125.2519458504
 31
0.0
  0
LINE
  5
1F0
330
1F
100
AcDbEntity
  8
OBRYS
100
AcDbLine
 10
135.8802111127
 20
121.7519458588
 30
0.0
 11
135.8802111127
 21
125.2519458504
 31
0.0
  0
LINE
  5
1F1
330
1F
100
AcDbEntity
  8
OBRYS
100
AcDbLine
 10
156.3802102819
 20
121.2519458932
 30
0.0
 11
136.3802102633
 21
121.2519458932
 31
0.0
  0
LINE
  5
1F2
330
1F
100
AcDbEntity
  8
OBRYS
100
AcDbLine
 10
156.8802103639
 20
125.2519458504
 30
0.0
 11
156.8802103639
 21
121.7519458588
 31
0.0
  0
ARC
  5
1F3
330
1F
100
AcDbEntity
  8
OBRYS
100
AcDbCircle
 10
156.8802102901
 20
125.8519458362
 30
0.0
 40
0.6000000000000227
100
AcDbArc
 50
90.0
 51
270.0
  0
LINE
  5
1F4
330
1F
100
AcDbEntity
  8
OBRYS
100
AcDbLine
 10
156.8802103639
 20
140.5519464025
 30
0.0
 11
156.8802103639
 21
126.4519456746
 31
0.0
  0
ARC
  5
1F5
330
1F
100
AcDbEntity
  8
OBRYS
100
AcDbCircle
 10
156.8802102901
 20
141.1519458362
 30
0.0
 40
0.6000000000000227
100
AcDbArc
 50
90.0
 51
270.0
  0
LINE
  5
1F6
330
1F
100
AcDbEntity
  8
OBRYS
100
AcDbLine
 10
156.8802103639
 20
145.251945869
 30
0.0
 11
156.8802103639
 21
141.7519462266
 31
0.0
  0
LINE
  5
1F7
330
1F
100
AcDbEntity
  8
OBRYS
100
AcDbLine
 10
153.8802103378
 20
147.0519465366
 30
0.0
 11
162.0802102616
 21
147.0519465366
 31
0.0
  0
ARC
  5
1F8
330
1F
100
AcDbEntity
  8
OBRYS
100
AcDbCircle
 10
153.3802102901
 20
166.9519458362
 30
0.0
 40
0.5
100
AcDbArc
 50
180.0
 51
270.0
  0
ARC
  5
1F9
330
1F
100
AcDbEntity
  8
OBRYS
100
AcDbCircle
 10
151.1802102901
 20
166.9519458362
 30
0.0
 40
0.5
100
AcDbArc
 50
270.0
 51
0.0
  0
ARC
  5
1FA
330
1F
100
AcDbEntity
  8
OBRYS
100
AcDbCircle
 10
154.6802102901
 20
167.1519458362
 30
0.0
 40
0.5
100
AcDbArc
 50
0.0
 51
90.0
  0
ARC
  5
1FB
330
1F
100
AcDbEntity
  8
OBRYS
100
AcDbCircle
 10
153.3802102901
 20
164.7519458362
 30
0.0
 40
0.5
100
AcDbArc
 50
90.0
 51
180.0
  0
ARC
  5
1FC
330
1F
100
AcDbEntity
  8
OBRYS
100
AcDbCircle
 10
149.8802102901
 20
172.5519458362
 30
0.0
 40
0.5
100
AcDbArc
 50
90.0
 51
180.0
  0
ARC
  5
1FD
330
1F
100
AcDbEntity
  8
OBRYS
100
AcDbCircle
 10
154.6802102901
 20
172.5519458362
 30
0.0
 40
0.5
100
AcDbArc
 50
0.0
 51
90.0
  0
LINE
  5
1FE
330
1F
100
AcDbEntity
  8
OBRYS
100
AcDbLine
 10
136.3802102633
 20
145.7519450196
 30
0.0
 11
156.3802102819
 21
145.7519450196
 31
0.0
  0
LINE
  5
1FF
330
1F
100
AcDbEntity
  8
OBRYS
100
AcDbLine
 10
149.3802105315
 20
167.1519459197
 30
0.0
 11
149.3802105315
 21
165.7519445726
 31
0.0
  0
LINE
  5
200
330
1F
100
AcDbEntity
  8
OBRYS
100
AcDbLine
 10
151.1802102678
 20
166.4519452461
 30
0.0
 11
151.0802104376
 21
166.4519452461
 31
0.0
  0
LINE
  5
201
330
1F
100
AcDbEntity
  8
OBRYS
100
AcDbLine
 10
151.6802103497
 20
171.3519462356
 30
0.0
 11
151.6802103497
 21
166.9519462594
 31
0.0
  0
LINE
  5
202
330
1F
100
AcDbEntity
  8
OBRYS
100
AcDbLine
 10
149.3802105315
 20
171.1519465753
 30
0.0
 11
149.3802105315
 21
172.5519441971
 31
0.0
  0
LINE
  5
203
330
1F
100
AcDbEntity
  8
OBRYS
100
AcDbLine
 10
154.6802099101
 20
173.0519452104
 30
0.0
 11
149.8802106135
 21
173.0519452104
 31
0.0
  0
LINE
  5
204
330
1F
100
AcDbEntity
  8
OBRYS
100
AcDbLine
 10
139.7802100755
 20
141.0519455531
 30
0.0
 11
139.7802100755
 21
141.2519452134
 31
0.0
  0
LINE
  5
205
330
1F
100
AcDbEntity
  8
OBRYS
100
AcDbLine
 10
152.8802101739
 20
166.9519462594
 30
0.0
 11
152.8802101739
 21
171.3519462356
 31
0.0
  0
ARC
  5
206
330
1F
100
AcDbEntity
  8
OBRYS
100
AcDbCircle
 10
136.8802102901
 20
148.0519458362
 30
0.0
 40
1.0
100
AcDbArc
 50
180.0
 51
270.0
  0
ARC
  5
207
330
1F
100
AcDbEntity
  8
OBRYS
100
AcDbCircle
 10
153.8802102901
 20
148.0519458362
 30
0.0
 40
1.0
100
AcDbArc
 50
180.0
 51
270.0
  0
ARC
  5
208
330
1F
100
AcDbEntity
  8
OBRYS
100
AcDbCircle
 10
139.2802102901
 20
141.0519458362
 30
0.0
 40
0.5
100
AcDbArc
 50
270.0
 51
0.0
  0
ARC
  5
209
330
1F
100
AcDbEntity
  8
OBRYS
100
AcDbCircle
 10
139.2802102901
 20
125.9519458362
 30
0.0
 40
0.5
100
AcDbArc
 50
0.0
 51
90.0
  0
ARC
  5
20A
330
1F
100
AcDbEntity
  8
OBRYS
100
AcDbCircle
 10
156.3802102901
 20
145.2519458362
 30
0.0
 40
0.5000000000000284
100
AcDbArc
 50
0.0
 51
90.0
  0
ARC
  5
20B
330
1F
100
AcDbEntity
  8
OBRYS
100
AcDbCircle
 10
171.9802102901
 20
145.2519458362
 30
0.0
 40
0.5
100
AcDbArc
 50
0.0
 51
90.0
  0
ARC
  5
20C
330
1F
100
AcDbEntity
  8
OBRYS
100
AcDbCircle
 10
136.3802102901
 20
121.7519458362
 30
0.0
 40
0.5
100
AcDbArc
 50
180.0
 51
270.0
  0
ARC
  5
20D
330
1F
100
AcDbEntity
  8
OBRYS
100
AcDbCircle
 10
170.6802102901
 20
165.7519458362
 30
0.0
 40
0.5
100
AcDbArc
 50
180.0
 51
270.0
  0
ARC
  5
20E
330
1F
100
AcDbEntity
  8
OBRYS
100
AcDbCircle
 10
170.6802102901
 20
167.1519458362
 30
0.0
 40
0.5
100
AcDbArc
 50
90.0
 51
180.0
  0
ARC
  5
20F
330
1F
100
AcDbEntity
  8
OBRYS
100
AcDbCircle
 10
171.8802102901
 20
166.9519458362
 30
0.0
 40
0.5
100
AcDbArc
 50
180.0
 51
270.0
  0
ARC
  5
210
330
1F
100
AcDbEntity
  8
OBRYS
100
AcDbCircle
 10
171.9802102901
 20
171.3519458362
 30
0.0
 40
0.5
100
AcDbArc
 50
0.0
 51
90.0
  0
ARC
  5
211
330
1F
100
AcDbEntity
  8
OBRYS
100
AcDbCircle
 10
170.6802102901
 20
172.5519458362
 30
0.0
 40
0.5
100
AcDbArc
 50
90.0
 51
180.0
  0
ARC
  5
212
330
1F
100
AcDbEntity
  8
OBRYS
100
AcDbCircle
 10
137.6802102901
 20
167.1519458362
 30
0.0
 40
0.5
100
AcDbArc
 50
0.0
 51
90.0
  0
ARC
  5
213
330
1F
100
AcDbEntity
  8
OBRYS
100
AcDbCircle
 10
137.4802102901
 20
167.1519458362
 30
0.0
 40
0.5
100
AcDbArc
 50
90.0
 51
180.0
  0
ARC
  5
214
330
1F
100
AcDbEntity
  8
OBRYS
100
AcDbCircle
 10
137.6802102901
 20
172.5519458362
 30
0.0
 40
0.5
100
AcDbArc
 50
0.0
 51
90.0
  0
ARC
  5
215
330
1F
100
AcDbEntity
  8
OBRYS
100
AcDbCircle
 10
135.1802102901
 20
172.5519458362
 30
0.0
 40
0.5
100
AcDbArc
 50
90.0
 51
180.0
  0
ARC
  5
216
330
1F
100
AcDbEntity
  8
OBRYS
100
AcDbCircle
 10
136.4802102901
 20
166.9519458362
 30
0.0
 40
0.5
100
AcDbArc
 50
270.0
 51
0.0
  0
ARC
  5
217
330
1F
100
AcDbEntity
  8
OBRYS
100
AcDbCircle
 10
136.3802102901
 20
164.7519458362
 30
0.0
 40
0.5
100
AcDbArc
 50
90.0
 51
180.0
  0
ARC
  5
218
330
1F
100
AcDbEntity
  8
OBRYS
100
AcDbCircle
 10
149.8802102901
 20
171.1519458362
 30
0.0
 40
0.5
100
AcDbArc
 50
180.0
 51
270.0
  0
ARC
  5
219
330
1F
100
AcDbEntity
  8
OBRYS
100
AcDbCircle
 10
151.1802102901
 20
171.3519458362
 30
0.0
 40
0.5
100
AcDbArc
 50
0.0
 51
90.0
  0
ARC
  5
21A
330
1F
100
AcDbEntity
  8
OBRYS
100
AcDbCircle
 10
149.8802102901
 20
167.1519458362
 30
0.0
 40
0.5
100
AcDbArc
 50
90.0
 51
180.0
  0
ARC
  5
21B
330
1F
100
AcDbEntity
  8
OBRYS
100
AcDbCircle
 10
150.0802102901
 20
167.1519458362
 30
0.0
 40
0.5
100
AcDbArc
 50
0.0
 51
90.0
  0
ARC
  5
21C
330
1F
100
AcDbEntity
  8
OBRYS
100
AcDbCircle
 10
153.4802102901
 20
166.9519458362
 30
0.0
 40
0.5
100
AcDbArc
 50
270.0
 51
0.0
  0
LINE
  5
21D
330
1F
100
AcDbEntity
  8
OBRYS
100
AcDbLine
 10
153.3802102558
 20
171.8519472489
 30
0.0
 11
153.480210086
 21
171.8519472489
 31
0.0
  0
DIMENSION
  5
21E
330
1F
100
AcDbEntity
  8
KOTY
100
AcDbDimension
  2
*D6
 10
173.6802102901
 20
108.0519458362
 30
0.0
 11
154.1802102901
 21
108.0519458362
 31
0.0
 70
   160
 71
     2
 42
-1.0
  3
SLDDIMSTYLE0
100
AcDbAlignedDimension
 13
134.6802102901
 23
120.5519458362
 33
0.0
 14
173.6802102901
 24
120.5519458362
 34
0.0
100
AcDbRotatedDimension
  0
DIMENSION
  5
228
330
1F
100
AcDbEntity
  8
KOTY
100
AcDbDimension
  2
*D7
 10
179.6802102901
 20
173.0519458362
 30
0.0
 11
179.6802102901
 21
146.5519458362
 31
0.0
 70
   160
 71
     2
 42
-1.0
  3
SLDDIMSTYLE0
100
AcDbAlignedDimension
 13
173.1802102901
 23
120.0519458362
 33
0.0
 14
173.1802102901
 24
173.0519458362
 34
0.0
 50
90.0
100
AcDbRotatedDimension
  0
DIMENSION
  5
232
330
1F
100
AcDbEntity
  8
KOTY
100
AcDbDimension
  2
*D8
 10
156.8802102901
 20
114.0519458362
 30
0.0
 11
147.3178106581
 21
114.0519458362
 31
0.0
 70
   160
 71
     2
 42
-1.0
  3
SLDDIMSTYLE0
100
AcDbAlignedDimension
 13
135.8802102901
 23
121.7519458362
 33
0.0
 14
156.8802102901
 24
126.4519458362
 34
0.0
100
AcDbRotatedDimension
  0
DIMENSION
  5
23C
330
1F
100
AcDbEntity
  8
KOTY
100
AcDbDimension
  2
*D9
 10
128.6802102901
 20
121.2519458362
 30
0.0
 11
128.6802102901
 21
133.3669254492
 31
0.0
 70
   160
 71
     2
 42
-1.0
  3
SLDDIMSTYLE1
100
AcDbAlignedDimension
 13
136.3802102901
 23
145.7519458362
 33
0.0
 14
136.3802102901
 24
121.2519458362
 34
0.0
 50
90.0
100
AcDbRotatedDimension
  0
DIMENSION
  5
246
330
1F
100
AcDbEntity
  8
KOTY
100
AcDbDimension
  2
*D10
 10
128.6802102901
 20
147.0519458362
 30
0.0
 11
128.6802102901
 21
160.0519458362
 31
0.0
 70
   160
 71
     2
 42
-1.0
  3
SLDDIMSTYLE0
100
AcDbAlignedDimension
 13
135.1802102901
 23
173.0519458362
 33
0.0
 14
136.8802102901
 24
147.0519458362
 34
0.0
 50
90.0
100
AcDbRotatedDimension
  0
DIMENSION
  5
250
330
1F
100
AcDbEntity
  8
KOTY
100
AcDbDimension
  2
*D11
 10
170.1802102901
 20
179.0519458362
 30
0.0
 11
162.5451899031
 21
179.0519458362
 31
0.0
 70
   160
 71
     2
 42
-1.0
  3
SLDDIMSTYLE2
100
AcDbAlignedDimension
 13
155.1802102901
 23
172.5519458362
 33
0.0
 14
170.1802102901
 24
172.5519458362
 34
0.0
100
AcDbRotatedDimension
  0
DIMENSION
  5
25C
330
1F
100
AcDbEntity
  8
KOTY
100
AcDbDimension
  2
*D12
 10
138.1802102901
 20
179.0519458362
 30
0.0
 11
143.2401287419
 21
179.0519458362
 31
0.0
 70
   160
 71
     2
 42
-1.0
  3
SLDDIMSTYLE3
100
AcDbAlignedDimension
 13
149.3802102901
 23
172.5519458362
 33
0.0
 14
138.1802102901
 24
172.5519458362
 34
0.0
100
AcDbRotatedDimension
  0
DIMENSION
  5
269
330
1F
100
AcDbEntity
  8
KOTY
100
AcDbDimension
  2
*D13
 10
139.7802102901
 20
130.1813869692
 30
0.0
 11
147.3178106581
 21
130.1813869692
 31
0.0
 70
   160
 71
     2
 42
-1.0
  3
SLDDIMSTYLE3
100
AcDbAlignedDimension
 13
156.2802102901
 23
125.8519458362
 33
0.0
 14
139.7802102901
 24
125.9519458362
 34
0.0
100
AcDbRotatedDimension
  0
ARC
  5
275
330
1F
100
AcDbEntity
  8
OBRYS
100
AcDbCircle
 10
73.6251254724
 20
47.8592353019
 30
0.0
 40
0.5000000000000071
100
AcDbArc
 50
0.0
 51
90.0
  0
LINE
  5
276
330
1F
100
AcDbEntity
  8
OBRYS
100
AcDbLine
 10
74.1251265691
 20
47.6592353787
 30
0.0
 11
74.1251265691
 21
47.8592355046
 31
0.0
  0
ARC
  5
277
330
1F
100
AcDbEntity
  8
OBRYS
100
AcDbCircle
 10
73.6251254724
 20
47.6592353019
 30
0.0
 40
0.5
100
AcDbArc
 50
270.0
 51
0.0
  0
LINE
  5
278
330
1F
100
AcDbEntity
  8
OBRYS
100
AcDbLine
 10
73.4251258956
 20
47.1592352967
 30
0.0
 11
73.6251255559
 21
47.1592352967
 31
0.0
  0
ARC
  5
279
330
1F
100
AcDbEntity
  8
OBRYS
100
AcDbCircle
 10
73.4251254724
 20
46.6592353019
 30
0.0
 40
0.5
100
AcDbArc
 50
90.0
 51
180.0
  0
LINE
  5
27A
330
1F
100
AcDbEntity
  8
OBRYS
100
AcDbLine
 10
72.9251248823
 20
46.5592353846
 30
0.0
 11
72.9251248823
 21
46.6592352148
 31
0.0
  0
ARC
  5
27B
330
1F
100
AcDbEntity
  8
OBRYS
100
AcDbCircle
 10
73.4251254724
 20
46.5592353019
 30
0.0
 40
0.5
100
AcDbArc
 50
180.0
 51
270.0
  0
LINE
  5
27C
330
1F
100
AcDbEntity
  8
OBRYS
100
AcDbLine
 10
77.8251258718
 20
46.059234837
 30
0.0
 11
73.4251258956
 21
46.059234837
 31
0.0
  0
ARC
  5
27D
330
1F
100
AcDbEntity
  8
OBRYS
100
AcDbCircle
 10
77.8251254724
 20
46.5592353019
 30
0.0
 40
0.5
100
AcDbArc
 50
270.0
 51
0.0
  0
LINE
  5
27E
330
1F
100
AcDbEntity
  8
OBRYS
100
AcDbLine
 10
78.325126885
 20
46.6592352148
 30
0.0
 11
78.325126885
 21
46.5592353846
 31
0.0
  0
ARC
  5
27F
330
1F
100
AcDbEntity
  8
OBRYS
100
AcDbCircle
 10
77.8251254724
 20
46.6592353019
 30
0.0
 40
0.5
100
AcDbArc
 50
0.0
 51
90.0
  0
ARC
  5
280
330
1F
100
AcDbEntity
  8
OBRYS
100
AcDbCircle
 10
77.6251254724
 20
47.6592353019
 30
0.0
 40
0.5
100
AcDbArc
 50
180.0
 51
270.0
  0
LINE
  5
281
330
1F
100
AcDbEntity
  8
OBRYS
100
AcDbLine
 10
77.1251251982
 20
47.8592355046
 30
0.0
 11
77.1251251982
 21
47.6592353787
 31
0.0
  0
ARC
  5
282
330
1F
100
AcDbEntity
  8
OBRYS
100
AcDbCircle
 10
77.6251254724
 20
47.8592353019
 30
0.0
 40
0.5000000000000071
100
AcDbArc
 50
90.0
 51
180.0
  0
LINE
  5
283
330
1F
100
AcDbEntity
  8
OBRYS
100
AcDbLine
 10
79.0251238333
 20
48.3592351209
 30
0.0
 11
77.6251262115
 21
48.3592351209
 31
0.0
  0
ARC
  5
284
330
1F
100
AcDbEntity
  8
OBRYS
100
AcDbCircle
 10
79.0251254724
 20
47.8592353019
 30
0.0
 40
0.5000000000000071
100
AcDbArc
 50
0.0
 51
90.0
  0
ARC
  5
285
330
1F
100
AcDbEntity
  8
OBRYS
100
AcDbCircle
 10
79.0251254724
 20
45.3592353019
 30
0.0
 40
0.5
100
AcDbArc
 50
270.0
 51
0.0
  0
ARC
  5
286
330
1F
100
AcDbEntity
  8
OBRYS
100
AcDbCircle
 10
48.0251254724
 20
45.3592353019
 30
0.0
 40
0.5
100
AcDbArc
 50
180.0
 51
270.0
  0
ARC
  5
287
330
1F
100
AcDbEntity
  8
OBRYS
100
AcDbCircle
 10
48.0251254724
 20
48.5092353019
 30
0.0
 40
0.5
100
AcDbArc
 50
90.0
 51
180.0
  0
LINE
  5
288
330
1F
100
AcDbEntity
  8
OBRYS
100
AcDbLine
 10
48.2251258628
 20
49.0092354137
 30
0.0
 11
48.0251262026
 21
49.0092354137
 31
0.0
  0
ARC
  5
289
330
1F
100
AcDbEntity
  8
OBRYS
100
AcDbCircle
 10
48.2251254724
 20
48.5092353019
 30
0.0
 40
0.5
100
AcDbArc
 50
0.0
 51
90.0
  0
LINE
  5
28A
330
1F
100
AcDbEntity
  8
OBRYS
100
AcDbLine
 10
48.7251250135
 20
46.5592353846
 30
0.0
 11
48.7251250135
 21
48.5092353317
 31
0.0
  0
ARC
  5
28B
330
1F
100
AcDbEntity
  8
OBRYS
100
AcDbCircle
 10
49.2251254724
 20
46.5592353019
 30
0.0
 40
0.5
100
AcDbArc
 50
180.0
 51
270.0
  0
ARC
  5
28C
330
1F
100
AcDbEntity
  8
OBRYS
100
AcDbCircle
 10
51.8251254724
 20
46.5592353019
 30
0.0
 40
0.5000000000000071
100
AcDbArc
 50
270.0
 51
0.0
  0
LINE
  5
28D
330
1F
100
AcDbEntity
  8
OBRYS
100
AcDbLine
 10
52.3251263486
 20
61.4592352192
 30
0.0
 11
52.3251263486
 21
46.5592353846
 31
0.0
  0
ARC
  5
28E
330
1F
100
AcDbEntity
  8
OBRYS
100
AcDbCircle
 10
51.8251254724
 20
61.4592353019
 30
0.0
 40
0.5000000000000071
100
AcDbArc
 50
0.0
 51
90.0
  0
ARC
  5
28F
330
1F
100
AcDbEntity
  8
OBRYS
100
AcDbCircle
 10
49.2251254724
 20
61.4592353019
 30
0.0
 40
0.5
100
AcDbArc
 50
90.0
 51
180.0
  0
ARC
  5
290
330
1F
100
AcDbEntity
  8
OBRYS
100
AcDbCircle
 10
48.2251254724
 20
59.5092353019
 30
0.0
 40
0.5
100
AcDbArc
 50
270.0
 51
0.0
  0
ARC
  5
291
330
1F
100
AcDbEntity
  8
OBRYS
100
AcDbCircle
 10
48.0251254724
 20
59.5092353019
 30
0.0
 40
0.5
100
AcDbArc
 50
180.0
 51
270.0
  0
ARC
  5
292
330
1F
100
AcDbEntity
  8
OBRYS
100
AcDbCircle
 10
79.0251254724
 20
62.6592353019
 30
0.0
 40
0.5
100
AcDbArc
 50
0.0
 51
90.0
  0
LINE
  5
293
330
1F
100
AcDbEntity
  8
OBRYS
100
AcDbLine
 10
79.5251248466
 20
60.1592350993
 30
0.0
 11
79.5251248466
 21
62.6592355091
 31
0.0
  0
ARC
  5
294
330
1F
100
AcDbEntity
  8
OBRYS
100
AcDbCircle
 10
79.0251254724
 20
60.1592353019
 30
0.0
 40
0.5
100
AcDbArc
 50
270.0
 51
0.0
  0
ARC
  5
295
330
1F
100
AcDbEntity
  8
OBRYS
100
AcDbCircle
 10
77.6251254724
 20
60.1592353019
 30
0.0
 40
0.5
100
AcDbArc
 50
180.0
 51
270.0
  0
LINE
  5
296
330
1F
100
AcDbEntity
  8
OBRYS
100
AcDbLine
 10
77.1251251982
 20
60.3592352252
 30
0.0
 11
77.1251251982
 21
60.1592350993
 31
0.0
  0
ARC
  5
297
330
1F
100
AcDbEntity
  8
OBRYS
100
AcDbCircle
 10
77.6251254724
 20
60.3592353019
 30
0.0
 40
0.5
100
AcDbArc
 50
90.0
 51
180.0
  0
LINE
  5
298
330
1F
100
AcDbEntity
  8
OBRYS
100
AcDbLine
 10
77.8251258718
 20
60.8592353071
 30
0.0
 11
77.6251262115
 21
60.8592353071
 31
0.0
  0
ARC
  5
299
330
1F
100
AcDbEntity
  8
OBRYS
100
AcDbCircle
 10
77.8251254724
 20
61.3592353019
 30
0.0
 40
0.5
100
AcDbArc
 50
270.0
 51
0.0
  0
LINE
  5
29A
330
1F
100
AcDbEntity
  8
OBRYS
100
AcDbLine
 10
78.325126885
 20
61.4592352192
 30
0.0
 11
78.325126885
 21
61.3592353891
 31
0.0
  0
ARC
  5
29B
330
1F
100
AcDbEntity
  8
OBRYS
100
AcDbCircle
 10
77.8251254724
 20
61.4592353019
 30
0.0
 40
0.5
100
AcDbArc
 50
0.0
 51
90.0
  0
LINE
  5
29C
330
1F
100
AcDbEntity
  8
OBRYS
100
AcDbLine
 10
73.4251258956
 20
61.9592357668
 30
0.0
 11
77.8251258718
 21
61.9592357668
 31
0.0
  0
ARC
  5
29D
330
1F
100
AcDbEntity
  8
OBRYS
100
AcDbCircle
 10
73.4251254724
 20
61.4592353019
 30
0.0
 40
0.5
100
AcDbArc
 50
90.0
 51
180.0
  0
LINE
  5
29E
330
1F
100
AcDbEntity
  8
OBRYS
100
AcDbLine
 10
72.9251248823
 20
61.3592353891
 30
0.0
 11
72.9251248823
 21
61.4592352192
 31
0.0
  0
ARC
  5
29F
330
1F
100
AcDbEntity
  8
OBRYS
100
AcDbCircle
 10
73.4251254724
 20
61.3592353019
 30
0.0
 40
0.5
100
AcDbArc
 50
180.0
 51
270.0
  0
LINE
  5
2A0
330
1F
100
AcDbEntity
  8
OBRYS
100
AcDbLine
 10
73.6251255559
 20
60.8592353071
 30
0.0
 11
73.4251258956
 21
60.8592353071
 31
0.0
  0
ARC
  5
2A1
330
1F
100
AcDbEntity
  8
OBRYS
100
AcDbCircle
 10
73.6251254724
 20
60.3592353019
 30
0.0
 40
0.5
100
AcDbArc
 50
0.0
 51
90.0
  0
LINE
  5
2A2
330
1F
100
AcDbEntity
  8
OBRYS
100
AcDbLine
 10
74.1251265691
 20
60.1592350993
 30
0.0
 11
74.1251265691
 21
60.3592352252
 31
0.0
  0
ARC
  5
2A3
330
1F
100
AcDbEntity
  8
OBRYS
100
AcDbCircle
 10
73.6251254724
 20
60.1592353019
 30
0.0
 40
0.5
100
AcDbArc
 50
270.0
 51
0.0
  0
LINE
  5
2A4
330
1F
100
AcDbEntity
  8
OBRYS
100
AcDbLine
 10
72.2251242088
 20
59.659235483
 30
0.0
 11
73.6251255559
 21
59.659235483
 31
0.0
  0
ARC
  5
2A5
330
1F
100
AcDbEntity
  8
OBRYS
100
AcDbCircle
 10
72.2251254724
 20
60.1592353019
 30
0.0
 40
0.5
100
AcDbArc
 50
180.0
 51
270.0
  0
LINE
  5
2A6
330
1F
100
AcDbEntity
  8
OBRYS
100
AcDbLine
 10
71.7251269208
 20
61.4592352192
 30
0.0
 11
71.7251269208
 21
60.1592350993
 31
0.0
  0
ARC
  5
2A7
330
1F
100
AcDbEntity
  8
OBRYS
100
AcDbCircle
 10
71.2251254724
 20
61.4592353019
 30
0.0
 40
0.5
100
AcDbArc
 50
0.0
 51
90.0
  0
LINE
  5
2A8
330
1F
100
AcDbEntity
  8
OBRYS
100
AcDbLine
 10
54.0251253234
 20
61.9592357668
 30
0.0
 11
71.2251259075
 21
61.9592357668
 31
0.0
  0
ARC
  5
2A9
330
1F
100
AcDbEntity
  8
OBRYS
100
AcDbCircle
 10
54.0251254724
 20
61.4592353019
 30
0.0
 40
0.5
100
AcDbArc
 50
90.0
 51
180.0
  0
LINE
  5
2AA
330
1F
100
AcDbEntity
  8
OBRYS
100
AcDbLine
 10
53.5251261728
 20
46.5592353846
 30
0.0
 11
53.5251261728
 21
61.4592352192
 31
0.0
  0
ARC
  5
2AB
330
1F
100
AcDbEntity
  8
OBRYS
100
AcDbCircle
 10
54.0251254724
 20
46.5592353019
 30
0.0
 40
0.5
100
AcDbArc
 50
180.0
 51
270.0
  0
LINE
  5
2AC
330
1F
100
AcDbEntity
  8
OBRYS
100
AcDbLine
 10
71.2251259075
 20
46.059234837
 30
0.0
 11
54.0251253234
 21
46.059234837
 31
0.0
  0
ARC
  5
2AD
330
1F
100
AcDbEntity
  8
OBRYS
100
AcDbCircle
 10
71.2251254724
 20
46.5592353019
 30
0.0
 40
0.5
100
AcDbArc
 50
270.0
 51
0.0
  0
LINE
  5
2AE
330
1F
100
AcDbEntity
  8
OBRYS
100
AcDbLine
 10
71.7251269208
 20
47.8592355046
 30
0.0
 11
71.7251269208
 21
46.5592353846
 31
0.0
  0
ARC
  5
2AF
330
1F
100
AcDbEntity
  8
OBRYS
100
AcDbCircle
 10
72.2251254724
 20
47.8592353019
 30
0.0
 40
0.5000000000000071
100
AcDbArc
 50
90.0
 51
180.0
  0
LINE
  5
2B0
330
1F
100
AcDbEntity
  8
OBRYS
100
AcDbLine
 10
73.6251255559
 20
48.3592351209
 30
0.0
 11
72.2251242088
 21
48.3592351209
 31
0.0
  0
LINE
  5
2B1
330
1F
100
AcDbEntity
  8
OBRYS
100
AcDbLine
 10
77.6251262115
 20
59.659235483
 30
0.0
 11
79.0251238333
 21
59.659235483
 31
0.0
  0
LINE
  5
2B2
330
1F
100
AcDbEntity
  8
OBRYS
100
AcDbLine
 10
79.0251238333
 20
63.159235591
 30
0.0
 11
47.5251251893
 21
63.159235591
 31
0.0
  0
LINE
  5
2B3
330
1F
100
AcDbEntity
  8
OBRYS
100
AcDbLine
 10
79.5251248466
 20
45.3592350948
 30
0.0
 11
79.5251248466
 21
47.8592355046
 31
0.0
  0
LINE
  5
2B4
330
1F
100
AcDbEntity
  8
OBRYS
100
AcDbLine
 10
77.6251262115
 20
47.1592352967
 30
0.0
 11
77.8251258718
 21
47.1592352967
 31
0.0
  0
LINE
  5
2B5
330
1F
100
AcDbEntity
  8
OBRYS
100
AcDbLine
 10
47.5251251893
 20
48.5092353317
 30
0.0
 11
47.5251251893
 21
45.3592350948
 31
0.0
  0
LINE
  5
2B6
330
1F
100
AcDbEntity
  8
OBRYS
100
AcDbLine
 10
49.2251260267
 20
61.9592357668
 30
0.0
 11
51.8251253353
 21
61.9592357668
 31
0.0
  0
LINE
  5
2B7
330
1F
100
AcDbEntity
  8
OBRYS
100
AcDbLine
 10
48.7251250135
 20
59.5092352721
 30
0.0
 11
48.7251250135
 21
61.4592352192
 31
0.0
  0
LINE
  5
2B8
330
1F
100
AcDbEntity
  8
OBRYS
100
AcDbLine
 10
48.0251262026
 20
44.8592350128
 30
0.0
 11
79.0251238333
 21
44.8592350128
 31
0.0
  0
LINE
  5
2B9
330
1F
100
AcDbEntity
  8
OBRYS
100
AcDbLine
 10
47.5251251893
 20
63.159235591
 30
0.0
 11
47.5251251893
 21
59.5092352721
 31
0.0
  0
LINE
  5
2BA
330
1F
100
AcDbEntity
  8
OBRYS
100
AcDbLine
 10
51.8251253353
 20
46.059234837
 30
0.0
 11
49.2251260267
 21
46.059234837
 31
0.0
  0
LINE
  5
2BB
330
1F
100
AcDbEntity
  8
OBRYS
100
AcDbLine
 10
48.0251262026
 20
59.0092351902
 30
0.0
 11
48.2251258628
 21
59.0092351902
 31
0.0
  0
LINE
  5
2BC
330
1F
100
AcDbEntity
  8
OBRYS
100
AcDbLine
 10
75.9312590645
 20
47.0139089282
 30
0.0
 11
70.0551388846
 21
52.2819520682
 31
0.0
  0
LINE
  5
2BD
330
1F
100
AcDbEntity
  8
OBRYS
100
AcDbLine
 10
75.9546762394
 20
47.0332068633
 30
0.0
 11
70.0751660453
 21
52.3042894909
 31
0.0
  0
LINE
  5
2BE
330
1F
100
AcDbEntity
  8
OBRYS
100
AcDbLine
 10
70.0885174857
 20
52.319181106
 30
0.0
 11
70.0751660453
 21
52.3042894909
 31
0.0
  0
LINE
  5
2BF
330
1F
100
AcDbEntity
  8
OBRYS
100
AcDbLine
 10
75.9695215212
 20
47.0467562097
 30
0.0
 11
70.0885174857
 21
52.319181106
 31
0.0
  0
LINE
  5
2C0
330
1F
100
AcDbEntity
  8
OBRYS
100
AcDbLine
 10
75.9906662689
 20
47.0680909473
 30
0.0
 11
70.1085446464
 21
52.3415185287
 31
0.0
  0
LINE
  5
2C1
330
1F
100
AcDbEntity
  8
OBRYS
100
AcDbLine
 10
70.1218923615
 20
52.3564102603
 30
0.0
 11
70.1085446464
 21
52.3415185287
 31
0.0
  0
LINE
  5
2C2
330
1F
100
AcDbEntity
  8
OBRYS
100
AcDbLine
 10
76.0040177094
 20
47.0829823296
 30
0.0
 11
70.1218923615
 21
52.3564102603
 31
0.0
  0
LINE
  5
2C3
330
1F
100
AcDbEntity
  8
OBRYS
100
AcDbLine
 10
76.0229235576
 20
47.1063226703
 30
0.0
 11
70.1419195221
 21
52.378747683
 31
0.0
  0
LINE
  5
2C4
330
1F
100
AcDbEntity
  8
OBRYS
100
AcDbLine
 10
70.1552709626
 20
52.3936392981
 30
0.0
 11
70.1419195221
 21
52.378747683
 31
0.0
  0
LINE
  5
2C5
330
1F
100
AcDbEntity
  8
OBRYS
100
AcDbLine
 10
76.0347774313
 20
47.1225565541
 30
0.0
 11
70.1552709626
 21
52.3936392981
 31
0.0
  0
LINE
  5
2C6
330
1F
100
AcDbEntity
  8
OBRYS
100
AcDbLine
 10
76.0514145778
 20
47.1479336973
 30
0.0
 11
70.1752943979
 21
52.4159768372
 31
0.0
  0
LINE
  5
2C7
330
1F
100
AcDbEntity
  8
OBRYS
100
AcDbLine
 10
70.1886458384
 20
52.4308684524
 30
0.0
 11
70.1752943979
 21
52.4159768372
 31
0.0
  0
LINE
  5
2C8
330
1F
100
AcDbEntity
  8
OBRYS
100
AcDbLine
 10
76.0617224561
 20
47.1655510608
 30
0.0
 11
70.1886458384
 21
52.4308684524
 31
0.0
  0
LINE
  5
2C9
330
1F
100
AcDbEntity
  8
OBRYS
100
AcDbLine
 10
76.0759791421
 20
47.1930618639
 30
0.0
 11
70.208672999
 21
52.4532058751
 31
0.0
  0
LINE
  5
2CA
330
1F
100
AcDbEntity
  8
OBRYS
100
AcDbLine
 10
70.2220244394
 20
52.4680974902
 30
0.0
 11
70.208672999
 21
52.4532058751
 31
0.0
  0
LINE
  5
2CB
330
1F
100
AcDbEntity
  8
OBRYS
100
AcDbLine
 10
76.0846441673
 20
47.2121530454
 30
0.0
 11
70.2220244394
 21
52.4680974902
 31
0.0
  0
LINE
  5
2CC
330
1F
100
AcDbEntity
  8
OBRYS
100
AcDbLine
 10
76.0963192271
 20
47.2419772539
 30
0.0
 11
70.2420478748
 21
52.4904350293
 31
0.0
  0
LINE
  5
2CD
330
1F
100
AcDbEntity
  8
OBRYS
100
AcDbLine
 10
70.2553993152
 20
52.5053266445
 30
0.0
 11
70.2420478748
 21
52.4904350293
 31
0.0
  0
LINE
  5
2CE
330
1F
100
AcDbEntity
  8
OBRYS
100
AcDbLine
 10
76.1031700359
 20
47.2626973185
 30
0.0
 11
70.2553993152
 21
52.5053266445
 31
0.0
  0
LINE
  5
2CF
330
1F
100
AcDbEntity
  8
OBRYS
100
AcDbLine
 10
76.1119319187
 20
47.2951329555
 30
0.0
 11
70.2754264759
 21
52.5276640672
 31
0.0
  0
LINE
  5
2D0
330
1F
100
AcDbEntity
  8
OBRYS
100
AcDbLine
 10
70.2887779163
 20
52.5425556823
 30
0.0
 11
70.2754264759
 21
52.5276640672
 31
0.0
  0
LINE
  5
2D1
330
1F
100
AcDbEntity
  8
OBRYS
100
AcDbLine
 10
76.1166816639
 20
47.317735223
 30
0.0
 11
70.2887779163
 21
52.5425556823
 31
0.0
  0
LINE
  5
2D2
330
1F
100
AcDbEntity
  8
OBRYS
100
AcDbLine
 10
76.1219827519
 20
47.3532730955
 30
0.0
 11
70.3088013516
 21
52.5648932214
 31
0.0
  0
LINE
  5
2D3
330
1F
100
AcDbEntity
  8
OBRYS
100
AcDbLine
 10
76.1241620468
 20
47.3781827147
 30
0.0
 11
70.3221527921
 21
52.5797848366
 31
0.0
  0
LINE
  5
2D4
330
1F
100
AcDbEntity
  8
OBRYS
100
AcDbLine
 10
76.1250561164
 20
47.4176721889
 30
0.0
 11
70.3421799527
 21
52.6021222593
 31
0.0
  0
LINE
  5
2D5
330
1F
100
AcDbEntity
  8
OBRYS
100
AcDbLine
 10
70.3555276679
 20
52.6170139908
 30
0.0
 11
70.3421799527
 21
52.6021222593
 31
0.0
  0
LINE
  5
2D6
330
1F
100
AcDbEntity
  8
OBRYS
100
AcDbLine
 10
76.1237969683
 20
47.4456602949
 30
0.0
 11
70.3555276679
 21
52.6170139908
 31
0.0
  0
LINE
  5
2D7
330
1F
100
AcDbEntity
  8
OBRYS
100
AcDbLine
 10
76.1184362756
 20
47.4907586593
 30
0.0
 11
70.3755548285
 21
52.6393514135
 31
0.0
  0
LINE
  5
2D8
330
1F
100
AcDbEntity
  8
OBRYS
100
AcDbLine
 10
70.3889062689
 20
52.6542430287
 30
0.0
 11
70.3755548285
 21
52.6393514135
 31
0.0
  0
LINE
  5
2D9
330
1F
100
AcDbEntity
  8
OBRYS
100
AcDbLine
 10
76.1118983911
 20
47.5234788153
 30
0.0
 11
70.3889062689
 21
52.6542430287
 31
0.0
  0
LINE
  5
2DA
330
1F
100
AcDbEntity
  8
OBRYS
100
AcDbLine
 10
76.0956673013
 20
47.5783216077
 30
0.0
 11
70.4089334296
 21
52.6765804514
 31
0.0
  0
LINE
  5
2DB
330
1F
100
AcDbEntity
  8
OBRYS
100
AcDbLine
 10
70.4222811447
 20
52.6914721829
 30
0.0
 11
70.4089334296
 21
52.6765804514
 31
0.0
  0
LINE
  5
2DC
330
1F
100
AcDbEntity
  8
OBRYS
100
AcDbLine
 10
75.9148677872
 20
47.0017430614
 30
0.0
 11
70.0417911695
 21
52.2670603366
 31
0.0
  0
LINE
  5
2DD
330
1F
100
AcDbEntity
  8
OBRYS
100
AcDbLine
 10
73.4251258956
 20
46.9092352557
 30
0.0
 11
73.4251258956
 21
46.3092353437
 31
0.0
  0
LINE
  5
2DE
330
1F
100
AcDbEntity
  8
OBRYS
100
AcDbLine
 10
74.6251238571
 20
46.9092352557
 30
0.0
 11
73.4251258956
 21
46.9092352557
 31
0.0
  0
LINE
  5
2DF
330
1F
100
AcDbEntity
  8
OBRYS
100
AcDbLine
 10
74.6251238571
 20
47.4092353377
 30
0.0
 11
74.6251238571
 21
46.9092352557
 31
0.0
  0
ARC
  5
2E0
330
1F
100
AcDbEntity
  8
OBRYS
100
AcDbCircle
 10
75.6251254724
 20
47.4092353019
 30
0.0
 40
1.0
100
AcDbArc
 50
168.1232120985
 51
180.0
  0
LINE
  5
2E1
330
1F
100
AcDbEntity
  8
OBRYS
100
AcDbLine
 10
75.2913584994
 20
47.0369442608
 30
0.0
 11
74.6465331005
 21
47.6150431912
 31
0.0
  0
ARC
  5
2E2
330
1F
100
AcDbEntity
  8
OBRYS
100
AcDbCircle
 10
75.6251254724
 20
47.4092353019
 30
0.0
 40
0.5000000000000042
100
AcDbArc
 50
228.1232120985
 51
251.1971301642
  0
LINE
  5
2E3
330
1F
100
AcDbEntity
  8
OBRYS
100
AcDbLine
 10
75.3140641438
 20
48.3596248794
 30
0.0
 11
75.9588895427
 21
47.7815264146
 31
0.0
  0
ARC
  5
2E4
330
1F
100
AcDbEntity
  8
OBRYS
100
AcDbCircle
 10
75.6251254724
 20
47.4092353019
 30
0.0
 40
1.000000000000002
100
AcDbArc
 50
0.0
 51
108.1232120985
  0
LINE
  5
2E5
330
1F
100
AcDbEntity
  8
OBRYS
100
AcDbLine
 10
76.6251241849
 20
46.9092352557
 30
0.0
 11
76.6251241849
 21
47.4092353377
 31
0.0
  0
LINE
  5
2E6
330
1F
100
AcDbEntity
  8
OBRYS
100
AcDbLine
 10
77.8251258718
 20
46.9092352557
 30
0.0
 11
76.6251241849
 21
46.9092352557
 31
0.0
  0
LINE
  5
2E7
330
1F
100
AcDbEntity
  8
OBRYS
100
AcDbLine
 10
77.8251258718
 20
46.3092353437
 30
0.0
 11
77.8251258718
 21
46.9092352557
 31
0.0
  0
LINE
  5
2E8
330
1F
100
AcDbEntity
  8
OBRYS
100
AcDbLine
 10
73.4251258956
 20
46.3092353437
 30
0.0
 11
77.8251258718
 21
46.3092353437
 31
0.0
  0
ARC
  5
2E9
330
1F
100
AcDbEntity
  8
OBRYS
100
AcDbCircle
 10
75.6251254724
 20
47.4092353019
 30
0.0
 40
0.5000000000000003
100
AcDbArc
 50
25.0492940329
 51
48.1232120985
  0
ARC
  5
2EA
330
1F
100
AcDbEntity
  8
OBRYS
100
AcDbCircle
 10
75.6251254724
 20
47.4092353019
 30
0.0
 40
0.5000000000000095
100
AcDbArc
 50
13.2080058511
 51
19.7655755222
  0
ARC
  5
2EB
330
1F
100
AcDbEntity
  8
OBRYS
100
AcDbCircle
 10
75.6251254724
 20
47.4092353019
 30
0.0
 40
0.5000000000000079
100
AcDbArc
 50
4.1776925362
 51
9.3837875007
  0
ARC
  5
2EC
330
1F
100
AcDbEntity
  8
OBRYS
100
AcDbCircle
 10
75.6251254724
 20
47.4092353019
 30
0.0
 40
0.4999999999999957
100
AcDbArc
 50
356.4393465722
 51
0.9668551421
  0
ARC
  5
2ED
330
1F
100
AcDbEntity
  8
OBRYS
100
AcDbCircle
 10
75.6251254724
 20
47.4092353019
 30
0.0
 40
0.5000000000000115
100
AcDbArc
 50
349.4554635961
 51
353.5737547377
  0
ARC
  5
2EE
330
1F
100
AcDbEntity
  8
OBRYS
100
AcDbCircle
 10
75.6251254724
 20
47.4092353019
 30
0.0
 40
0.5000000000000109
100
AcDbArc
 50
342.9577995883
 51
346.8086141127
  0
ARC
  5
2EF
330
1F
100
AcDbEntity
  8
OBRYS
100
AcDbCircle
 10
75.6251254724
 20
47.4092353019
 30
0.0
 40
0.500000000000004
100
AcDbArc
 50
336.7861369835
 51
340.4568947564
  0
ARC
  5
2F0
330
1F
100
AcDbEntity
  8
OBRYS
100
AcDbCircle
 10
75.6251254724
 20
47.4092353019
 30
0.0
 40
0.5000000000000078
100
AcDbArc
 50
330.8322450929
 51
334.3834168069
  0
ARC
  5
2F1
330
1F
100
AcDbEntity
  8
OBRYS
100
AcDbCircle
 10
75.6251254724
 20
47.4092353019
 30
0.0
 40
0.5000000000000031
100
AcDbArc
 50
325.0153146779
 51
328.492971904
  0
ARC
  5
2F2
330
1F
100
AcDbEntity
  8
OBRYS
100
AcDbCircle
 10
75.6251254724
 20
47.4092353019
 30
0.0
 40
0.5000000000000033
100
AcDbArc
 50
319.2692040969
 51
322.7117778343
  0
ARC
  5
2F3
330
1F
100
AcDbEntity
  8
OBRYS
100
AcDbCircle
 10
75.6251254724
 20
47.4092353019
 30
0.0
 40
0.5000000000000053
100
AcDbArc
 50
313.5346463628
 51
316.9772201002
  0
ARC
  5
2F4
330
1F
100
AcDbEntity
  8
OBRYS
100
AcDbCircle
 10
75.6251254724
 20
47.4092353019
 30
0.0
 40
0.5000000000000097
100
AcDbArc
 50
307.7534522931
 51
311.2311095192
  0
ARC
  5
2F5
330
1F
100
AcDbEntity
  8
OBRYS
100
AcDbCircle
 10
75.6251254724
 20
47.4092353019
 30
0.0
 40
0.4999999999999988
100
AcDbArc
 50
301.8630073902
 51
305.4141791042
  0
ARC
  5
2F6
330
1F
100
AcDbEntity
  8
OBRYS
100
AcDbCircle
 10
75.6251254724
 20
47.4092353019
 30
0.0
 40
0.500000000000003
100
AcDbArc
 50
295.7895294407
 51
299.4602872136
  0
ARC
  5
2F7
330
1F
100
AcDbEntity
  8
OBRYS
100
AcDbCircle
 10
75.6251254724
 20
47.4092353019
 30
0.0
 40
0.4999999999999998
100
AcDbArc
 50
289.4378100844
 51
293.2886246088
  0
ARC
  5
2F8
330
1F
100
AcDbEntity
  8
OBRYS
100
AcDbCircle
 10
75.6251254724
 20
47.4092353019
 30
0.0
 40
0.5000000000000056
100
AcDbArc
 50
282.6726694594
 51
286.790960601
  0
ARC
  5
2F9
330
1F
100
AcDbEntity
  8
OBRYS
100
AcDbCircle
 10
75.6251254724
 20
47.4092353019
 30
0.0
 40
0.500000000000003
100
AcDbArc
 50
275.279569055
 51
279.8070776249
  0
ARC
  5
2FA
330
1F
100
AcDbEntity
  8
OBRYS
100
AcDbCircle
 10
75.6251254724
 20
47.4092353019
 30
0.0
 40
0.5000000000000026
100
AcDbArc
 50
266.8626366964
 51
272.0687316609
  0
ARC
  5
2FB
330
1F
100
AcDbEntity
  8
OBRYS
100
AcDbCircle
 10
75.6251254724
 20
47.4092353019
 30
0.0
 40
0.5000000000000008
100
AcDbArc
 50
256.4808486749
 51
263.038418346
  0
LINE
  5
2FC
330
1F
100
AcDbEntity
  8
OBRYS
100
AcDbLine
 10
70.3221527921
 20
52.5797848366
 30
0.0
 11
70.3088013516
 21
52.5648932214
 31
0.0
  0
LINE
  5
2FD
330
1F
100
AcDbEntity
  8
OBRYS
100
AcDbLine
 10
76.0780988322
 20
47.6209342721
 30
0.0
 11
70.4222811447
 21
52.6914721829
 31
0.0
  0
LINE
  5
2FE
330
1F
100
AcDbEntity
  8
OBRYS
100
AcDbLine
 10
69.8215035783
 20
52.0213482212
 30
0.0
 11
69.8081558631
 21
52.006456606
 31
0.0
  0
LINE
  5
2FF
330
1F
100
AcDbEntity
  8
OBRYS
100
AcDbLine
 10
75.5082411753
 20
46.9230896104
 30
0.0
 11
69.8215035783
 21
52.0213482212
 31
0.0
  0
LINE
  5
300
330
1F
100
AcDbEntity
  8
OBRYS
100
AcDbLine
 10
75.4639698254
 20
46.9359185788
 30
0.0
 11
69.8081558631
 21
52.006456606
 31
0.0
  0
LINE
  5
301
330
1F
100
AcDbEntity
  8
OBRYS
100
AcDbLine
 10
69.8548821794
 20
52.0585773754
 30
0.0
 11
69.8415307389
 21
52.0436857603
 31
0.0
  0
LINE
  5
302
330
1F
100
AcDbEntity
  8
OBRYS
100
AcDbLine
 10
75.5977599011
 20
46.9099845047
 30
0.0
 11
69.8548821794
 21
52.0585773754
 31
0.0
  0
LINE
  5
303
330
1F
100
AcDbEntity
  8
OBRYS
100
AcDbLine
 10
75.5645228611
 20
46.9129214305
 30
0.0
 11
69.8415307389
 21
52.0436857603
 31
0.0
  0
LINE
  5
304
330
1F
100
AcDbEntity
  8
OBRYS
100
AcDbLine
 10
69.8882570551
 20
52.0958065297
 30
0.0
 11
69.8749056147
 21
52.0809149146
 31
0.0
  0
LINE
  5
305
330
1F
100
AcDbEntity
  8
OBRYS
100
AcDbLine
 10
75.6711332189
 20
46.9113563429
 30
0.0
 11
69.8882570551
 21
52.0958065297
 31
0.0
  0
LINE
  5
306
330
1F
100
AcDbEntity
  8
OBRYS
100
AcDbLine
 10
75.6431749152
 20
46.9095612186
 30
0.0
 11
69.8749056147
 21
52.0809149146
 31
0.0
  0
LINE
  5
307
330
1F
100
AcDbEntity
  8
OBRYS
100
AcDbLine
 10
69.9216356562
 20
52.1330355675
 30
0.0
 11
69.9082842158
 21
52.1181439524
 31
0.0
  0
LINE
  5
308
330
1F
100
AcDbEntity
  8
OBRYS
100
AcDbLine
 10
75.7348170565
 20
46.921415558
 30
0.0
 11
69.9216356562
 21
52.1330355675
 31
0.0
  0
LINE
  5
309
330
1F
100
AcDbEntity
  8
OBRYS
100
AcDbLine
 10
75.7102897452
 20
46.916541947
 30
0.0
 11
69.9082842158
 21
52.1181439524
 31
0.0
  0
LINE
  5
30A
330
1F
100
AcDbEntity
  8
OBRYS
100
AcDbLine
 10
69.955010532
 20
52.1702647218
 30
0.0
 11
69.9416590916
 21
52.1553731067
 31
0.0
  0
LINE
  5
30B
330
1F
100
AcDbEntity
  8
OBRYS
100
AcDbLine
 10
75.7915159749
 20
46.9377337265
 30
0.0
 11
69.955010532
 21
52.1702647218
 31
0.0
  0
LINE
  5
30C
330
1F
100
AcDbEntity
  8
OBRYS
100
AcDbLine
 10
75.7695665644
 20
46.9305527638
 30
0.0
 11
69.9416590916
 21
52.1553731067
 31
0.0
  0
LINE
  5
30D
330
1F
100
AcDbEntity
  8
OBRYS
100
AcDbLine
 10
69.9883891331
 20
52.2074937596
 30
0.0
 11
69.9750376926
 21
52.1926021445
 31
0.0
  0
LINE
  5
30E
330
1F
100
AcDbEntity
  8
OBRYS
100
AcDbLine
 10
75.8426604854
 20
46.9590363334
 30
0.0
 11
69.9883891331
 21
52.2074937596
 31
0.0
  0
LINE
  5
30F
330
1F
100
AcDbEntity
  8
OBRYS
100
AcDbLine
 10
75.8228084134
 20
46.9499727021
 30
0.0
 11
69.9750376926
 21
52.1926021445
 31
0.0
  0
LINE
  5
310
330
1F
100
AcDbEntity
  8
OBRYS
100
AcDbLine
 10
70.0217640089
 20
52.2447229139
 30
0.0
 11
70.0084125684
 21
52.2298312988
 31
0.0
  0
LINE
  5
311
330
1F
100
AcDbEntity
  8
OBRYS
100
AcDbLine
 10
75.8890701519
 20
46.9845787864
 30
0.0
 11
70.0217640089
 21
52.2447229139
 31
0.0
  0
LINE
  5
312
330
1F
100
AcDbEntity
  8
OBRYS
100
AcDbLine
 10
75.8710360216
 20
46.9738867375
 30
0.0
 11
70.0084125684
 21
52.2298312988
 31
0.0
  0
LINE
  5
313
330
1F
100
AcDbEntity
  8
OBRYS
100
AcDbLine
 10
70.0551388846
 20
52.2819520682
 30
0.0
 11
70.0417911695
 21
52.2670603366
 31
0.0
  0
LINE
  5
314
330
1F
100
AcDbEntity
  8
OBRYS
100
AcDbLine
 10
74.8953601407
 20
61.0654520112
 30
0.0
 11
74.9148918377
 21
61.0611544232
 31
0.0
  0
LINE
  5
315
330
1F
100
AcDbEntity
  8
OBRYS
100
AcDbLine
 10
74.9148918377
 20
61.0611544232
 30
0.0
 11
73.8734087037
 21
56.3276445735
 31
0.0
  0
LINE
  5
316
330
1F
100
AcDbEntity
  8
OBRYS
100
AcDbLine
 10
73.8734087037
 20
56.3276445735
 30
0.0
 11
73.8538770066
 21
56.3319423943
 31
0.0
  0
LINE
  5
317
330
1F
100
AcDbEntity
  8
OBRYS
100
AcDbLine
 10
74.8953601407
 20
61.0654520112
 30
0.0
 11
73.8538770066
 21
56.3319423943
 31
0.0
  0
LINE
  5
318
330
1F
100
AcDbEntity
  8
OBRYS
100
AcDbLine
 10
76.6086099731
 20
56.1077264845
 30
0.0
 11
76.6284657703
 21
56.1101048495
 31
0.0
  0
LINE
  5
319
330
1F
100
AcDbEntity
  8
OBRYS
100
AcDbLine
 10
76.0151973055
 20
61.0621141511
 30
0.0
 11
76.6086099731
 21
56.1077264845
 31
0.0
  0
LINE
  5
31A
330
1F
100
AcDbEntity
  8
OBRYS
100
AcDbLine
 10
76.0350531028
 20
61.064492749
 30
0.0
 11
76.6284657703
 21
56.1101048495
 31
0.0
  0
LINE
  5
31B
330
1F
100
AcDbEntity
  8
OBRYS
100
AcDbLine
 10
76.0350531028
 20
61.064492749
 30
0.0
 11
76.0151973055
 21
61.0621141511
 31
0.0
  0
LINE
  5
31C
330
1F
100
AcDbEntity
  8
OBRYS
100
AcDbLine
 10
76.80381891
 20
56.151136361
 30
0.0
 11
76.8236151026
 21
56.1539924945
 31
0.0
  0
LINE
  5
31D
330
1F
100
AcDbEntity
  8
OBRYS
100
AcDbLine
 10
76.095227717
 20
61.0618752669
 30
0.0
 11
76.80381891
 21
56.151136361
 31
0.0
  0
LINE
  5
31E
330
1F
100
AcDbEntity
  8
OBRYS
100
AcDbLine
 10
76.1150239097
 20
61.0647316332
 30
0.0
 11
76.8236151026
 21
56.1539924945
 31
0.0
  0
LINE
  5
31F
330
1F
100
AcDbEntity
  8
OBRYS
100
AcDbLine
 10
76.1150239097
 20
61.0647316332
 30
0.0
 11
76.095227717
 21
61.0618752669
 31
0.0
  0
LINE
  5
320
330
1F
100
AcDbEntity
  8
OBRYS
100
AcDbLine
 10
77.0069925176
 20
56.2039837948
 30
0.0
 11
77.0267142044
 21
56.2073190938
 31
0.0
  0
LINE
  5
321
330
1F
100
AcDbEntity
  8
OBRYS
100
AcDbLine
 10
76.1851264225
 20
61.0633034501
 30
0.0
 11
77.0069925176
 21
56.2039837948
 31
0.0
  0
LINE
  5
322
330
1F
100
AcDbEntity
  8
OBRYS
100
AcDbLine
 10
76.2048443841
 20
61.0666385162
 30
0.0
 11
77.0267142044
 21
56.2073190938
 31
0.0
  0
LINE
  5
323
330
1F
100
AcDbEntity
  8
OBRYS
100
AcDbLine
 10
76.2048443841
 20
61.0666385162
 30
0.0
 11
76.1851264225
 21
61.0633034501
 31
0.0
  0
LINE
  5
324
330
1F
100
AcDbEntity
  8
OBRYS
100
AcDbLine
 10
77.1882427918
 20
56.2611839976
 30
0.0
 11
77.2078750716
 21
56.2649996261
 31
0.0
  0
LINE
  5
325
330
1F
100
AcDbEntity
  8
OBRYS
100
AcDbLine
 10
76.2553108917
 20
61.0613956358
 30
0.0
 11
77.1882427918
 21
56.2611839976
 31
0.0
  0
LINE
  5
326
330
1F
100
AcDbEntity
  8
OBRYS
100
AcDbLine
 10
76.2749431716
 20
61.0652112644
 30
0.0
 11
77.2078750716
 21
56.2649996261
 31
0.0
  0
LINE
  5
327
330
1F
100
AcDbEntity
  8
OBRYS
100
AcDbLine
 10
76.2749431716
 20
61.0652112644
 30
0.0
 11
76.2553108917
 21
61.0613956358
 31
0.0
  0
LINE
  5
328
330
1F
100
AcDbEntity
  8
OBRYS
100
AcDbLine
 10
73.4251258956
 20
61.009235518
 30
0.0
 11
74.8829884516
 21
61.009235518
 31
0.0
  0
LINE
  5
329
330
1F
100
AcDbEntity
  8
OBRYS
100
AcDbLine
 10
73.4251258956
 20
61.8092350903
 30
0.0
 11
73.4251258956
 21
61.009235518
 31
0.0
  0
LINE
  5
32A
330
1F
100
AcDbEntity
  8
OBRYS
100
AcDbLine
 10
77.8251258718
 20
61.8092350903
 30
0.0
 11
73.4251258956
 21
61.8092350903
 31
0.0
  0
LINE
  5
32B
330
1F
100
AcDbEntity
  8
OBRYS
100
AcDbLine
 10
77.8251258718
 20
61.009235518
 30
0.0
 11
77.8251258718
 21
61.8092350903
 31
0.0
  0
LINE
  5
32C
330
1F
100
AcDbEntity
  8
OBRYS
100
AcDbLine
 10
76.3672595905
 20
61.009235518
 30
0.0
 11
77.8251258718
 21
61.009235518
 31
0.0
  0
LINE
  5
32D
330
1F
100
AcDbEntity
  8
OBRYS
100
AcDbLine
 10
76.2858210193
 20
61.009235518
 30
0.0
 11
76.3467816697
 21
61.009235518
 31
0.0
  0
LINE
  5
32E
330
1F
100
AcDbEntity
  8
OBRYS
100
AcDbLine
 10
76.2145524906
 20
61.009235518
 30
0.0
 11
76.2654474066
 21
61.009235518
 31
0.0
  0
LINE
  5
32F
330
1F
100
AcDbEntity
  8
OBRYS
100
AcDbLine
 10
76.1230295585
 20
61.009235518
 30
0.0
 11
76.1942682849
 21
61.009235518
 31
0.0
  0
LINE
  5
330
330
1F
100
AcDbEntity
  8
OBRYS
100
AcDbLine
 10
76.0416729437
 20
61.009235518
 30
0.0
 11
76.1028235839
 21
61.009235518
 31
0.0
  0
LINE
  5
331
330
1F
100
AcDbEntity
  8
OBRYS
100
AcDbLine
 10
75.9603349553
 20
61.009235518
 30
0.0
 11
76.021530299
 21
61.009235518
 31
0.0
  0
LINE
  5
332
330
1F
100
AcDbEntity
  8
OBRYS
100
AcDbLine
 10
75.8790155934
 20
61.009235518
 30
0.0
 11
75.9402444647
 21
61.009235518
 31
0.0
  0
LINE
  5
333
330
1F
100
AcDbEntity
  8
OBRYS
100
AcDbLine
 10
75.7977074073
 20
61.009235518
 30
0.0
 11
75.8589623557
 21
61.009235518
 31
0.0
  0
LINE
  5
334
330
1F
100
AcDbEntity
  8
OBRYS
100
AcDbLine
 10
75.7164141224
 20
61.009235518
 30
0.0
 11
75.777683972
 21
61.009235518
 31
0.0
  0
LINE
  5
335
330
1F
100
AcDbEntity
  8
OBRYS
100
AcDbLine
 10
75.6351245628
 20
61.009235518
 30
0.0
 11
75.6964055882
 21
61.009235518
 31
0.0
  0
LINE
  5
336
330
1F
100
AcDbEntity
  8
OBRYS
100
AcDbLine
 10
75.6351245628
 20
61.009235518
 30
0.0
 11
75.6351245628
 21
56.0092353969
 31
0.0
  0
LINE
  5
337
330
1F
100
AcDbEntity
  8
OBRYS
100
AcDbLine
 10
75.6151272045
 20
56.0092353969
 30
0.0
 11
75.6351245628
 21
56.0092353969
 31
0.0
  0
LINE
  5
338
330
1F
100
AcDbEntity
  8
OBRYS
100
AcDbLine
 10
75.6151272045
 20
61.009235518
 30
0.0
 11
75.6151272045
 21
56.0092353969
 31
0.0
  0
LINE
  5
339
330
1F
100
AcDbEntity
  8
OBRYS
100
AcDbLine
 10
75.5538424538
 20
61.009235518
 30
0.0
 11
75.6151272045
 21
61.009235518
 31
0.0
  0
LINE
  5
33A
330
1F
100
AcDbEntity
  8
OBRYS
100
AcDbLine
 10
75.4725640701
 20
61.009235518
 30
0.0
 11
75.5338376449
 21
61.009235518
 31
0.0
  0
LINE
  5
33B
330
1F
100
AcDbEntity
  8
OBRYS
100
AcDbLine
 10
75.3912856864
 20
61.009235518
 30
0.0
 11
75.45254436
 21
61.009235518
 31
0.0
  0
LINE
  5
33C
330
1F
100
AcDbEntity
  8
OBRYS
100
AcDbLine
 10
75.3100073026
 20
61.009235518
 30
0.0
 11
75.371236174
 21
61.009235518
 31
0.0
  0
LINE
  5
33D
330
1F
100
AcDbEntity
  8
OBRYS
100
AcDbLine
 10
75.2287214683
 20
61.009235518
 30
0.0
 11
75.289916812
 21
61.009235518
 31
0.0
  0
LINE
  5
33E
330
1F
100
AcDbEntity
  8
OBRYS
100
AcDbLine
 10
75.1474281834
 20
61.009235518
 30
0.0
 11
75.2085788237
 21
61.009235518
 31
0.0
  0
LINE
  5
33F
330
1F
100
AcDbEntity
  8
OBRYS
100
AcDbLine
 10
75.0559797572
 20
61.009235518
 30
0.0
 11
75.1272184835
 21
61.009235518
 31
0.0
  0
LINE
  5
340
330
1F
100
AcDbEntity
  8
OBRYS
100
AcDbLine
 10
74.9848043607
 20
61.009235518
 30
0.0
 11
75.0356955515
 21
61.009235518
 31
0.0
  0
LINE
  5
341
330
1F
100
AcDbEntity
  8
OBRYS
100
AcDbLine
 10
74.9034700976
 20
61.009235518
 30
0.0
 11
74.9644307481
 21
61.009235518
 31
0.0
  0
LINE
  5
342
330
1F
100
AcDbEntity
  8
OBRYS
100
AcDbLine
 10
77.3768430637
 20
56.3276445735
 30
0.0
 11
77.3963747607
 21
56.3319423943
 31
0.0
  0
LINE
  5
343
330
1F
100
AcDbEntity
  8
OBRYS
100
AcDbLine
 10
76.3353599297
 20
61.0611544232
 30
0.0
 11
77.3768430637
 21
56.3276445735
 31
0.0
  0
LINE
  5
344
330
1F
100
AcDbEntity
  8
OBRYS
100
AcDbLine
 10
76.3548916267
 20
61.0654520112
 30
0.0
 11
77.3963747607
 21
56.3319423943
 31
0.0
  0
LINE
  5
345
330
1F
100
AcDbEntity
  8
OBRYS
100
AcDbLine
 10
76.3548916267
 20
61.0654520112
 30
0.0
 11
76.3353599297
 21
61.0611544232
 31
0.0
  0
LINE
  5
346
330
1F
100
AcDbEntity
  8
OBRYS
100
AcDbLine
 10
75.5551239537
 20
61.0630659628
 30
0.0
 11
75.4351621555
 21
56.0129979401
 31
0.0
  0
LINE
  5
347
330
1F
100
AcDbEntity
  8
OBRYS
100
AcDbLine
 10
75.4351621555
 20
56.0129979401
 30
0.0
 11
75.4151685225
 21
56.0134726818
 31
0.0
  0
LINE
  5
348
330
1F
100
AcDbEntity
  8
OBRYS
100
AcDbLine
 10
75.5351265954
 20
61.0635409373
 30
0.0
 11
75.4151685225
 21
56.0134726818
 31
0.0
  0
LINE
  5
349
330
1F
100
AcDbEntity
  8
OBRYS
100
AcDbLine
 10
75.5351265954
 20
61.0635409373
 30
0.0
 11
75.5551239537
 21
61.0630659628
 31
0.0
  0
LINE
  5
34A
330
1F
100
AcDbEntity
  8
OBRYS
100
AcDbLine
 10
75.4751158939
 20
61.0628284756
 30
0.0
 11
75.2355126725
 21
56.0247537922
 31
0.0
  0
LINE
  5
34B
330
1F
100
AcDbEntity
  8
OBRYS
100
AcDbLine
 10
75.2355126725
 20
56.0247537922
 30
0.0
 11
75.2155376659
 21
56.025703974
 31
0.0
  0
LINE
  5
34C
330
1F
100
AcDbEntity
  8
OBRYS
100
AcDbLine
 10
75.4551371621
 20
61.0637784246
 30
0.0
 11
75.2155376659
 21
56.025703974
 31
0.0
  0
LINE
  5
34D
330
1F
100
AcDbEntity
  8
OBRYS
100
AcDbLine
 10
75.4551371621
 20
61.0637784246
 30
0.0
 11
75.4751158939
 21
61.0628284756
 31
0.0
  0
LINE
  5
34E
330
1F
100
AcDbEntity
  8
OBRYS
100
AcDbLine
 10
75.3951003836
 20
61.0625905226
 30
0.0
 11
75.0365002142
 21
56.0444840937
 31
0.0
  0
LINE
  5
34F
330
1F
100
AcDbEntity
  8
OBRYS
100
AcDbLine
 10
75.0365002142
 20
56.0444840937
 30
0.0
 11
75.0165512847
 21
56.0459097158
 31
0.0
  0
LINE
  5
350
330
1F
100
AcDbEntity
  8
OBRYS
100
AcDbLine
 10
75.3751514541
 20
61.0640159118
 30
0.0
 11
75.0165512847
 21
56.0459097158
 31
0.0
  0
LINE
  5
351
330
1F
100
AcDbEntity
  8
OBRYS
100
AcDbLine
 10
75.3751514541
 20
61.0640159118
 30
0.0
 11
75.3951003836
 21
61.0625905226
 31
0.0
  0
LINE
  5
352
330
1F
100
AcDbEntity
  8
OBRYS
100
AcDbLine
 10
75.2951694714
 20
61.0642543304
 30
0.0
 11
75.315081148
 21
61.0623525697
 31
0.0
  0
LINE
  5
353
330
1F
100
AcDbEntity
  8
OBRYS
100
AcDbLine
 10
74.8384377049
 20
56.0721564814
 30
0.0
 11
74.8185260283
 21
56.0740582421
 31
0.0
  0
LINE
  5
354
330
1F
100
AcDbEntity
  8
OBRYS
100
AcDbLine
 10
75.315081148
 20
61.0623525697
 30
0.0
 11
74.8384377049
 21
56.0721564814
 31
0.0
  0
LINE
  5
355
330
1F
100
AcDbEntity
  8
OBRYS
100
AcDbLine
 10
75.2951694714
 20
61.0642543304
 30
0.0
 11
74.8185260283
 21
56.0740582421
 31
0.0
  0
LINE
  5
356
330
1F
100
AcDbEntity
  8
OBRYS
100
AcDbLine
 10
75.2350544618
 20
61.0621141511
 30
0.0
 11
74.6416417943
 21
56.1077264845
 31
0.0
  0
LINE
  5
357
330
1F
100
AcDbEntity
  8
OBRYS
100
AcDbLine
 10
74.6416417943
 20
56.1077264845
 30
0.0
 11
74.621785997
 21
56.1101048495
 31
0.0
  0
LINE
  5
358
330
1F
100
AcDbEntity
  8
OBRYS
100
AcDbLine
 10
75.2151949392
 20
61.064492749
 30
0.0
 11
74.621785997
 21
56.1101048495
 31
0.0
  0
LINE
  5
359
330
1F
100
AcDbEntity
  8
OBRYS
100
AcDbLine
 10
75.2151949392
 20
61.064492749
 30
0.0
 11
75.2350544618
 21
61.0621141511
 31
0.0
  0
LINE
  5
35A
330
1F
100
AcDbEntity
  8
OBRYS
100
AcDbLine
 10
75.8150896119
 20
56.0129979401
 30
0.0
 11
75.8350832449
 21
56.0134726818
 31
0.0
  0
LINE
  5
35B
330
1F
100
AcDbEntity
  8
OBRYS
100
AcDbLine
 10
75.6951278137
 20
61.0630659628
 30
0.0
 11
75.8150896119
 21
56.0129979401
 31
0.0
  0
LINE
  5
35C
330
1F
100
AcDbEntity
  8
OBRYS
100
AcDbLine
 10
75.7151214467
 20
61.0635409373
 30
0.0
 11
75.8350832449
 21
56.0134726818
 31
0.0
  0
LINE
  5
35D
330
1F
100
AcDbEntity
  8
OBRYS
100
AcDbLine
 10
75.7151214467
 20
61.0635409373
 30
0.0
 11
75.6951278137
 21
61.0630659628
 31
0.0
  0
LINE
  5
35E
330
1F
100
AcDbEntity
  8
OBRYS
100
AcDbLine
 10
76.0147353695
 20
56.0247537922
 30
0.0
 11
76.0347141014
 21
56.025703974
 31
0.0
  0
LINE
  5
35F
330
1F
100
AcDbEntity
  8
OBRYS
100
AcDbLine
 10
75.7751358734
 20
61.0628284756
 30
0.0
 11
76.0147353695
 21
56.0247537922
 31
0.0
  0
LINE
  5
360
330
1F
100
AcDbEntity
  8
OBRYS
100
AcDbLine
 10
75.7951146053
 20
61.0637784246
 30
0.0
 11
76.0347141014
 21
56.025703974
 31
0.0
  0
LINE
  5
361
330
1F
100
AcDbEntity
  8
OBRYS
100
AcDbLine
 10
75.7951146053
 20
61.0637784246
 30
0.0
 11
75.7751358734
 21
61.0628284756
 31
0.0
  0
LINE
  5
362
330
1F
100
AcDbEntity
  8
OBRYS
100
AcDbLine
 10
76.2137515532
 20
56.0444840937
 30
0.0
 11
76.2337004827
 21
56.0459097158
 31
0.0
  0
LINE
  5
363
330
1F
100
AcDbEntity
  8
OBRYS
100
AcDbLine
 10
75.8551513837
 20
61.0625905226
 30
0.0
 11
76.2137515532
 21
56.0444840937
 31
0.0
  0
LINE
  5
364
330
1F
100
AcDbEntity
  8
OBRYS
100
AcDbLine
 10
75.8751003133
 20
61.0640159118
 30
0.0
 11
76.2337004827
 21
56.0459097158
 31
0.0
  0
LINE
  5
365
330
1F
100
AcDbEntity
  8
OBRYS
100
AcDbLine
 10
75.8751003133
 20
61.0640159118
 30
0.0
 11
75.8551513837
 21
61.0625905226
 31
0.0
  0
LINE
  5
366
330
1F
100
AcDbEntity
  8
OBRYS
100
AcDbLine
 10
76.4118140625
 20
56.0721564814
 30
0.0
 11
76.4317220138
 21
56.0740582421
 31
0.0
  0
LINE
  5
367
330
1F
100
AcDbEntity
  8
OBRYS
100
AcDbLine
 10
75.9351706193
 20
61.0623525697
 30
0.0
 11
76.4118140625
 21
56.0721564814
 31
0.0
  0
LINE
  5
368
330
1F
100
AcDbEntity
  8
OBRYS
100
AcDbLine
 10
75.9550785707
 20
61.0642543304
 30
0.0
 11
76.4317220138
 21
56.0740582421
 31
0.0
  0
LINE
  5
369
330
1F
100
AcDbEntity
  8
OBRYS
100
AcDbLine
 10
75.9550785707
 20
61.0642543304
 30
0.0
 11
75.9351706193
 21
61.0623525697
 31
0.0
  0
LINE
  5
36A
330
1F
100
AcDbEntity
  8
OBRYS
100
AcDbLine
 10
75.1352278577
 20
61.0647316332
 30
0.0
 11
75.1550240503
 21
61.0618752669
 31
0.0
  0
LINE
  5
36B
330
1F
100
AcDbEntity
  8
OBRYS
100
AcDbLine
 10
75.1352278577
 20
61.0647316332
 30
0.0
 11
74.4266366647
 21
56.1539924945
 31
0.0
  0
LINE
  5
36C
330
1F
100
AcDbEntity
  8
OBRYS
100
AcDbLine
 10
75.1550240503
 20
61.0618752669
 30
0.0
 11
74.4464328574
 21
56.151136361
 31
0.0
  0
LINE
  5
36D
330
1F
100
AcDbEntity
  8
OBRYS
100
AcDbLine
 10
74.4464328574
 20
56.151136361
 30
0.0
 11
74.4266366647
 21
56.1539924945
 31
0.0
  0
LINE
  5
36E
330
1F
100
AcDbEntity
  8
OBRYS
100
AcDbLine
 10
74.9949408756
 20
61.0613956358
 30
0.0
 11
74.0620089756
 21
56.2611839976
 31
0.0
  0
LINE
  5
36F
330
1F
100
AcDbEntity
  8
OBRYS
100
AcDbLine
 10
74.0620089756
 20
56.2611839976
 30
0.0
 11
74.0423766957
 21
56.2649996261
 31
0.0
  0
LINE
  5
370
330
1F
100
AcDbEntity
  8
OBRYS
100
AcDbLine
 10
74.9753085958
 20
61.0652112644
 30
0.0
 11
74.0423766957
 21
56.2649996261
 31
0.0
  0
LINE
  5
371
330
1F
100
AcDbEntity
  8
OBRYS
100
AcDbLine
 10
74.9753085958
 20
61.0652112644
 30
0.0
 11
74.9949408756
 21
61.0613956358
 31
0.0
  0
LINE
  5
372
330
1F
100
AcDbEntity
  8
OBRYS
100
AcDbLine
 10
75.0651253449
 20
61.0633034501
 30
0.0
 11
74.2432592498
 21
56.2039837948
 31
0.0
  0
LINE
  5
373
330
1F
100
AcDbEntity
  8
OBRYS
100
AcDbLine
 10
74.2432592498
 20
56.2039837948
 30
0.0
 11
74.2235375629
 21
56.2073190938
 31
0.0
  0
LINE
  5
374
330
1F
100
AcDbEntity
  8
OBRYS
100
AcDbLine
 10
75.0454073833
 20
61.0666385162
 30
0.0
 11
74.2235375629
 21
56.2073190938
 31
0.0
  0
LINE
  5
375
330
1F
100
AcDbEntity
  8
OBRYS
100
AcDbLine
 10
75.0454073833
 20
61.0666385162
 30
0.0
 11
75.0651253449
 21
61.0633034501
 31
0.0
  0
DIMENSION
  5
376
330
1F
100
AcDbEntity
  8
KOTY
100
AcDbDimension
  2
*D14
 10
41.5251254724
 20
44.8592353019
 30
0.0
 11
41.5251254724
 21
54.0092353019
 31
0.0
 70
   160
 71
     2
 42
-1.0
  3
SLDDIMSTYLE1
100
AcDbAlignedDimension
 13
47.5251254724
 23
63.1592353019
 33
0.0
 14
48.0251254724
 24
44.8592353019
 34
0.0
 50
90.0
100
AcDbRotatedDimension
  0
DIMENSION
  5
380
330
1F
100
AcDbEntity
  8
KOTY
100
AcDbDimension
  2
*D15
 10
85.5251254724
 20
48.3592353019
 30
0.0
 11
85.5251254724
 21
54.0092353019
 31
0.0
 70
   160
 71
     2
 42
-1.0
  3
SLDDIMSTYLE3
100
AcDbAlignedDimension
 13
79.0251254724
 23
59.6592353019
 33
0.0
 14
79.0251254724
 24
48.3592353019
 34
0.0
 50
90.0
100
AcDbRotatedDimension
  0
DIMENSION
  5
38C
330
1F
100
AcDbEntity
  8
KOTY
100
AcDbDimension
  2
*D16
 10
47.5251254724
 20
69.1592353019
 30
0.0
 11
63.5251254724
 21
69.1592353019
 31
0.0
 70
   160
 71
     2
 42
-1.0
  3
SLDDIMSTYLE1
100
AcDbAlignedDimension
 13
79.5251254724
 23
62.6592353019
 33
0.0
 14
47.5251254724
 24
63.1592353019
 34
0.0
 50
0.0
100
AcDbRotatedDimension
  0
DIMENSION
  5
396
330
1F
100
AcDbEntity
  8
KOTY
100
AcDbDimension
  2
*D17
 10
53.5251254724
 20
38.8592353019
 30
0.0
 11
66.5251254724
 21
38.8592353019
 31
0.0
 70
   160
 71
     2
 42
-1.0
  3
SLDDIMSTYLE1
100
AcDbAlignedDimension
 13
79.5251254724
 23
45.3592353019
 33
0.0
 14
53.5251254724
 24
46.5592353019
 34
0.0
 50
0.0
100
AcDbRotatedDimension
  0
ENDSEC
  0
SECTION
  2
OBJECTS
  0
DICTIONARY
  5
C
330
0
100
AcDbDictionary
281
     1
  3
ACAD_GROUP
350
D
  3
ACAD_LAYOUT
350
1A
  3
ACAD_MLINESTYLE
350
17
  3
ACAD_PLOTSETTINGS
350
19
  3
ACAD_PLOTSTYLENAME
350
E
  0
DICTIONARY
  5
D
102
{ACAD_REACTORS
330
C
102
}
330
C
100
AcDbDictionary
281
     1
  0
DICTIONARY
  5
1A
102
{ACAD_REACTORS
330
C
102
}
330
C
100
AcDbDictionary
281
     1
  3
Layout1
350
1E
  3
Layout2
350
26
  3
Model
350
22
  0
DICTIONARY
  5
17
102
{ACAD_REACTORS
330
C
102
}
330
C
100
AcDbDictionary
281
     1
  3
Standard
350
18
  0
DICTIONARY
  5
19
102
{ACAD_REACTORS
330
C
102
}
330
C
100
AcDbDictionary
281
     1
  0
ACDBDICTIONARYWDFLT
  5
E
102
{ACAD_REACTORS
330
C
102
}
330
C
100
AcDbDictionary
281
     1
  3
Normal
350
F
100
AcDbDictionaryWithDefault
340
F
  0
LAYOUT
  5
1E
102
{ACAD_REACTORS
330
1A
102
}
330
1A
100
AcDbPlotSettings
  1

  2
none_device
  4

  6

 40
0.0
 41
0.0
 42
0.0
 43
0.0
 44
0.0
 45
0.0
 46
0.0
 47
0.0
 48
0.0
 49
0.0
140
0.0
141
0.0
142
1.0
143
1.0
 70
   688
 72
     0
 73
     0
 74
     5
  7

 75
    16
147
1.0
148
0.0
149
0.0
100
AcDbLayout
  1
Layout1
 70
     1
 71
     1
 10
0.0
 20
0.0
 11
420.0
 21
297.0
 12
0.0
 22
0.0
 32
0.0
 14
1.0000000000E+20
 24
1.0000000000E+20
 34
1.0000000000E+20
 15
-1.0000000000E+20
 25
-1.0000000000E+20
 35
-1.0000000000E+20
146
0.0
 13
0.0
 23
0.0
 33
0.0
 16
1.0
 26
0.0
 36
0.0
 17
0.0
 27
1.0
 37
0.0
 76
     0
330
1B
  0
LAYOUT
  5
26
102
{ACAD_REACTORS
330
1A
102
}
330
1A
100
AcDbPlotSettings
  1

  2
none_device
  4

  6

 40
0.0
 41
0.0
 42
0.0
 43
0.0
 44
0.0
 45
0.0
 46
0.0
 47
0.0
 48
0.0
 49
0.0
140
0.0
141
0.0
142
1.0
143
1.0
 70
   688
 72
     0
 73
     0
 74
     5
  7

 75
    16
147
1.0
148
0.0
149
0.0
100
AcDbLayout
  1
Layout2
 70
     1
 71
     2
 10
0.0
 20
0.0
 11
0.0
 21
0.0
 12
0.0
 22
0.0
 32
0.0
 14
0.0
 24
0.0
 34
0.0
 15
0.0
 25
0.0
 35
0.0
146
0.0
 13
0.0
 23
0.0
 33
0.0
 16
1.0
 26
0.0
 36
0.0
 17
0.0
 27
1.0
 37
0.0
 76
     0
330
23
  0
LAYOUT
  5
22
102
{ACAD_REACTORS
330
1A
102
}
330
1A
100
AcDbPlotSettings
  1

  2
none_device
  4

  6

 40
0.0
 41
0.0
 42
0.0
 43
0.0
 44
0.0
 45
0.0
 46
0.0
 47
0.0
 48
0.0
 49
0.0
140
0.0
141
0.0
142
1.0
143
1.0
 70
  1712
 72
     0
 73
     0
 74
     0
  7

 75
     0
147
1.0
148
0.0
149
0.0
100
AcDbLayout
  1
Model
 70
     1
 71
     0
 10
0.0
 20
0.0
 11
210.0
 21
297.0
 12
0.0
 22
0.0
 32
0.0
 14
0.0
 24
0.0
 34
0.0
 15
210.0
 25
297.0
 35
0.0
146
0.0
 13
0.0
 23
0.0
 33
0.0
 16
1.0
 26
0.0
 36
0.0
 17
0.0
 27
1.0
 37
0.0
 76
     0
330
1F
331
29
  0
MLINESTYLE
  5
18
102
{ACAD_REACTORS
330
17
102
}
330
17
100
AcDbMlineStyle
  2
Standard
 70
     0
  3

 62
   256
 51
90.0
 52
90.0
 71
     2
 49
0.5
 62
   256
  6
BYLAYER
 49
-0.5
 62
   256
  6
BYLAYER
  0
ACDBPLACEHOLDER
  5
F
102
{ACAD_REACTORS
330
E
102
}
330
E
  0
ENDSEC
  0
EOF
