  0
SECTION
  2
HEADER
  9
$ACADVER
  1
AC1014
  9
$ACADMAINTVER
 70
     9
  9
$DWGCODEPAGE
  3
ANSI_1250
  9
$INSBASE
 10
0.0
 20
0.0
 30
0.0
  9
$EXTMIN
 10
0.0
 20
0.0
 30
0.0
  9
$EXTMAX
 10
210.0
 20
297.0
 30
0.0
  9
$LIMMIN
 10
0.0
 20
0.0
  9
$LIMMAX
 10
210.0
 20
297.0
  9
$ORTHOMODE
 70
     0
  9
$REGENMODE
 70
     1
  9
$FILLMODE
 70
     1
  9
$QTEXTMODE
 70
     0
  9
$MIRRTEXT
 70
     1
  9
$DRAGMODE
 70
     2
  9
$LTSCALE
 40
1.0
  9
$OSMODE
 70
    37
  9
$ATTMODE
 70
     1
  9
$TEXTSIZE
 40
3.5
  9
$TRACEWID
 40
1.0
  9
$TEXTSTYLE
  7
STANDARD
  9
$CLAYER
  8
0
  9
$CELTYPE
  6
BYLAYER
  9
$CECOLOR
 62
   256
  9
$CELTSCALE
 40
1.0
  9
$DELOBJ
 70
     1
  9
$DISPSILH
 70
     0
  9
$DIMSCALE
 40
1.0
  9
$DIMASZ
 40
6.0
  9
$DIMEXO
 40
1.0
  9
$DIMDLI
 40
3.75
  9
$DIMRND
 40
0.0
  9
$DIMDLE
 40
0.0
  9
$DIMEXE
 40
1.0
  9
$DIMTP
 40
0.0
  9
$DIMTM
 40
0.0
  9
$DIMTXT
 40
3.5
  9
$DIMCEN
 40
2.5
  9
$DIMTSZ
 40
0.0
  9
$DIMTOL
 70
     0
  9
$DIMLIM
 70
     0
  9
$DIMTIH
 70
     1
  9
$DIMTOH
 70
     1
  9
$DIMSE1
 70
     0
  9
$DIMSE2
 70
     0
  9
$DIMTAD
 70
     1
  9
$DIMZIN
 70
     0
  9
$DIMBLK
  1

  9
$DIMASO
 70
     1
  9
$DIMSHO
 70
     1
  9
$DIMPOST
  1

  9
$DIMAPOST
  1

  9
$DIMALT
 70
     0
  9
$DIMALTD
 70
     3
  9
$DIMALTF
 40
0.0393700787
  9
$DIMLFAC
 40
1.0
  9
$DIMTOFL
 70
     1
  9
$DIMTVP
 40
0.0
  9
$DIMTIX
 70
     0
  9
$DIMSOXD
 70
     0
  9
$DIMSAH
 70
     0
  9
$DIMBLK1
  1

  9
$DIMBLK2
  1

  9
$DIMSTYLE
  2
ISO-25
  9
$DIMCLRD
 70
     0
  9
$DIMCLRE
 70
     0
  9
$DIMCLRT
 70
     0
  9
$DIMTFAC
 40
1.0
  9
$DIMGAP
 40
1.524
  9
$DIMJUST
 70
     0
  9
$DIMSD1
 70
     0
  9
$DIMSD2
 70
     0
  9
$DIMTOLJ
 70
     0
  9
$DIMTZIN
 70
     0
  9
$DIMALTZ
 70
     0
  9
$DIMALTTZ
 70
     0
  9
$DIMFIT
 70
     3
  9
$DIMUPT
 70
     0
  9
$DIMUNIT
 70
     2
  9
$DIMDEC
 70
     1
  9
$DIMTDEC
 70
     1
  9
$DIMALTU
 70
     2
  9
$DIMALTTD
 70
     3
  9
$DIMTXSTY
  7
STANDARD
  9
$DIMAUNIT
 70
     0
  9
$LUNITS
 70
     2
  9
$LUPREC
 70
     2
  9
$SKETCHINC
 40
1.0
  9
$FILLETRAD
 40
10.0
  9
$AUNITS
 70
     0
  9
$AUPREC
 70
     2
  9
$MENU
  1
.
  9
$ELEVATION
 40
0.0
  9
$PELEVATION
 40
0.0
  9
$THICKNESS
 40
0.0
  9
$LIMCHECK
 70
     0
  9
$CHAMFERA
 40
10.0
  9
$CHAMFERB
 40
10.0
  9
$CHAMFERC
 40
20.0
  9
$CHAMFERD
 40
0.0
  9
$SKPOLY
 70
     0
  9
$TDCREATE
 40
2455428.348755741
  9
$TDUPDATE
 40
2455428.348755752
  9
$TDINDWG
 40
0.0000000116
  9
$TDUSRTIMER
 40
0.0000000116
  9
$USRTIMER
 70
     1
  9
$ANGBASE
 50
0.0
  9
$ANGDIR
 70
     0
  9
$PDMODE
 70
     0
  9
$PDSIZE
 40
-1.0
  9
$PLINEWID
 40
0.0
  9
$COORDS
 70
     1
  9
$SPLFRAME
 70
     0
  9
$SPLINETYPE
 70
     6
  9
$SPLINESEGS
 70
     8
  9
$ATTDIA
 70
     0
  9
$ATTREQ
 70
     1
  9
$HANDLING
 70
     1
  9
$HANDSEED
  5
1D1
  9
$SURFTAB1
 70
     6
  9
$SURFTAB2
 70
     6
  9
$SURFTYPE
 70
     6
  9
$SURFU
 70
     6
  9
$SURFV
 70
     6
  9
$UCSNAME
  2

  9
$UCSORG
 10
0.0
 20
0.0
 30
0.0
  9
$UCSXDIR
 10
1.0
 20
0.0
 30
0.0
  9
$UCSYDIR
 10
0.0
 20
1.0
 30
0.0
  9
$PUCSNAME
  2

  9
$PUCSORG
 10
0.0
 20
0.0
 30
0.0
  9
$PUCSXDIR
 10
1.0
 20
0.0
 30
0.0
  9
$PUCSYDIR
 10
0.0
 20
1.0
 30
0.0
  9
$USERI1
 70
     0
  9
$USERI2
 70
     0
  9
$USERI3
 70
     0
  9
$USERI4
 70
     0
  9
$USERI5
 70
     0
  9
$USERR1
 40
0.0
  9
$USERR2
 40
0.0
  9
$USERR3
 40
0.0
  9
$USERR4
 40
0.0
  9
$USERR5
 40
0.0
  9
$WORLDVIEW
 70
     1
  9
$SHADEDGE
 70
     3
  9
$SHADEDIF
 70
    70
  9
$TILEMODE
 70
     1
  9
$MAXACTVP
 70
    64
  9
$PINSBASE
 10
0.0
 20
0.0
 30
0.0
  9
$PLIMCHECK
 70
     0
  9
$PEXTMIN
 10
1.0000000000E+20
 20
1.0000000000E+20
 30
1.0000000000E+20
  9
$PEXTMAX
 10
-1.0000000000E+20
 20
-1.0000000000E+20
 30
-1.0000000000E+20
  9
$PLIMMIN
 10
0.0
 20
0.0
  9
$PLIMMAX
 10
420.0
 20
297.0
  9
$UNITMODE
 70
     0
  9
$VISRETAIN
 70
     1
  9
$PLINEGEN
 70
     0
  9
$PSLTSCALE
 70
     1
  9
$TREEDEPTH
 70
  3020
  9
$PICKSTYLE
 70
     1
  9
$CMLSTYLE
  2
STANDARD
  9
$CMLJUST
 70
     0
  9
$CMLSCALE
 40
20.0
  9
$PROXYGRAPHICS
 70
     1
  9
$MEASUREMENT
 70
     1
  0
ENDSEC
  0
SECTION
  2
CLASSES
  0
CLASS
  1
ACDBDICTIONARYWDFLT
  2
AcDbDictionaryWithDefault
  3
ObjectDBX Classes
 90
        0
280
     0
281
     0
  0
CLASS
  1
VISUALSTYLE
  2
AcDbVisualStyle
  3
ObjectDBX Classes
 90
     4095
280
     0
281
     0
  0
CLASS
  1
MATERIAL
  2
AcDbMaterial
  3
ObjectDBX Classes
 90
     1153
280
     0
281
     0
  0
CLASS
  1
SCALE
  2
AcDbScale
  3
ObjectDBX Classes
 90
     1153
280
     0
281
     0
  0
CLASS
  1
DICTIONARYVAR
  2
AcDbDictionaryVar
  3
ObjectDBX Classes
 90
        0
280
     0
281
     0
  0
CLASS
  1
XRECORD
  2
AcDbXrecord
  3
AutoCAD 2000
 90
        0
280
     0
281
     0
  0
CLASS
  1
LWPOLYLINE
  2
AcDbPolyline
  3
AutoCAD 2000
 90
        0
280
     0
281
     1
  0
CLASS
  1
HATCH
  2
AcDbHatch
  3
AutoCAD 2000
 90
        0
280
     0
281
     1
  0
ENDSEC
  0
SECTION
  2
TABLES
  0
TABLE
  2
VPORT
  5
8
330
0
100
AcDbSymbolTable
 70
     1
  0
VPORT
  5
29
330
8
100
AcDbSymbolTableRecord
100
AcDbViewportTableRecord
  2
*ACTIVE
 70
     0
 10
0.0
 20
0.0
 11
1.0
 21
1.0
 12
105.0
 22
148.5
 13
0.0
 23
0.0
 14
10.0
 24
10.0
 15
10.0
 25
10.0
 16
0.0
 26
0.0
 36
1.0
 17
0.0
 27
0.0
 37
0.0
 40
297.0
 41
0.7070707071
 42
50.0
 43
0.0
 44
0.0
 50
0.0
 51
0.0
 71
     0
 72
  2000
 73
     1
 74
     3
 75
     0
 76
     0
 77
     0
 78
     0
  0
ENDTAB
  0
TABLE
  2
LTYPE
  5
5
330
0
100
AcDbSymbolTable
 70
     6
  0
LTYPE
  5
14
330
5
100
AcDbSymbolTableRecord
100
AcDbLinetypeTableRecord
  2
BYBLOCK
 70
     0
  3

 72
    65
 73
     0
 40
0.0
  0
LTYPE
  5
15
330
5
100
AcDbSymbolTableRecord
100
AcDbLinetypeTableRecord
  2
BYLAYER
 70
     0
  3

 72
    65
 73
     0
 40
0.0
  0
LTYPE
  5
16
330
5
100
AcDbSymbolTableRecord
100
AcDbLinetypeTableRecord
  2
CONTINUOUS
 70
     0
  3
Solid line
 72
    65
 73
     0
 40
0.0
  0
LTYPE
  5
3F
330
5
100
AcDbSymbolTableRecord
100
AcDbLinetypeTableRecord
  2
HIDDEN
 70
     0
  3
Hidden __ __ __ __ __ __ __ __ __ __ __ __ __ __
 72
    65
 73
     2
 40
1.905
 49
1.27
 74
     0
 49
-0.635
 74
     0
  0
LTYPE
  5
40
330
5
100
AcDbSymbolTableRecord
100
AcDbLinetypeTableRecord
  2
PHANTOM
 70
     0
  3
Phantom ______  __  __  ______  __  __  ______
 72
    65
 73
     6
 40
12.7
 49
6.35
 74
     0
 49
-1.27
 74
     0
 49
1.27
 74
     0
 49
-1.27
 74
     0
 49
1.27
 74
     0
 49
-1.27
 74
     0
  0
LTYPE
  5
41
330
5
100
AcDbSymbolTableRecord
100
AcDbLinetypeTableRecord
  2
CENTER
 70
     0
  3
Center ____ _ ____ _ ____ _ ____ _ ____ _ ____
 72
    65
 73
     4
 40
10.16
 49
6.35
 74
     0
 49
-1.27
 74
     0
 49
1.27
 74
     0
 49
-1.27
 74
     0
  0
LTYPE
  5
42
330
5
100
AcDbSymbolTableRecord
100
AcDbLinetypeTableRecord
  2
CENTERX2
 70
     0
  3
Center (2x) ________  __  ________  __  _____
 72
    65
 73
     4
 40
20.32
 49
12.7
 74
     0
 49
-2.54
 74
     0
 49
2.54
 74
     0
 49
-2.54
 74
     0
  0
LTYPE
  5
43
330
5
100
AcDbSymbolTableRecord
100
AcDbLinetypeTableRecord
  2
DOT2
 70
     0
  3
Dot (.5x) ........................................
 72
    65
 73
     2
 40
0.635
 49
0.0
 74
     0
 49
-0.635
 74
     0
  0
ENDTAB
  0
TABLE
  2
LAYER
  5
2
330
0
100
AcDbSymbolTable
 70
     2
  0
LAYER
  5
10
330
2
100
AcDbSymbolTableRecord
100
AcDbLayerTableRecord
  2
0
 70
     0
 62
     7
  6
CONTINUOUS
  0
LAYER
  5
44
330
2
100
AcDbSymbolTableRecord
100
AcDbLayerTableRecord
  2
SLD-DEFPOINTS
 70
     0
 62
     7
  6
CONTINUOUS
  0
ENDTAB
  0
TABLE
  2
STYLE
  5
3
330
0
100
AcDbSymbolTable
 70
     3
  0
STYLE
  5
11
330
3
100
AcDbSymbolTableRecord
100
AcDbTextStyleTableRecord
  2
STANDARD
 70
     0
 40
0.0
 41
1.0
 50
0.0
 71
     0
 42
2.5
  3
txt
  4

  0
STYLE
  5
C9
330
3
100
AcDbSymbolTableRecord
100
AcDbTextStyleTableRecord
  2
SLDTEXTSTYLE0
 70
     0
 40
0.0
 41
0.75
 50
0.0
 71
     0
 42
0.2
  3
TXT
  4

  0
STYLE
  5
145
330
3
100
AcDbSymbolTableRecord
100
AcDbTextStyleTableRecord
  2
SLDTEXTSTYLE1
 70
     0
 40
0.0
 41
0.6875
 50
0.0
 71
     0
 42
0.2
  3
TXT
  4

  0
ENDTAB
  0
TABLE
  2
VIEW
  5
6
330
0
100
AcDbSymbolTable
 70
     0
  0
ENDTAB
  0
TABLE
  2
UCS
  5
7
330
0
100
AcDbSymbolTable
 70
     0
  0
ENDTAB
  0
TABLE
  2
APPID
  5
9
330
0
100
AcDbSymbolTable
 70
     1
  0
APPID
  5
12
330
9
100
AcDbSymbolTableRecord
100
AcDbRegAppTableRecord
  2
ACAD
 70
     0
  0
ENDTAB
  0
TABLE
  2
DIMSTYLE
  5
A
330
0
100
AcDbSymbolTable
 70
     4
  0
DIMSTYLE
105
27
330
A
100
AcDbSymbolTableRecord
100
AcDbDimStyleTableRecord
  2
ISO-25
 70
     0
  3

  4

  5

  6

  7

 40
1.0
 41
2.5
 42
0.625
 43
3.75
 44
1.25
 45
0.0
 46
0.0
 47
0.0
 48
0.0
140
2.5
141
2.5
142
0.0
143
0.0393700787
144
1.0
145
0.0
146
1.0
147
0.625
 71
     0
 72
     0
 73
     0
 74
     0
 75
     0
 76
     0
 77
     1
 78
     8
170
     0
171
     3
172
     1
173
     0
174
     0
175
     0
176
     0
177
     0
178
     0
270
     2
271
     2
272
     2
273
     2
274
     3
340
11
275
     0
280
     0
281
     0
282
     0
283
     0
284
     8
285
     0
286
     0
287
     3
288
     0
  0
DIMSTYLE
105
CA
102
{ACAD_REACTORS
330
A6
330
DB
330
127
330
131
330
13C
330
19F
102
}
330
A
100
AcDbSymbolTableRecord
100
AcDbDimStyleTableRecord
  2
SLDDIMSTYLE0
 70
     0
  3

  4

  5

  6
CLOSED
  7
CLOSED
 40
1.0
 41
6.0
 42
0.0625
 43
0.38
 44
0.0
 45
0.000000001
 46
0.0
 47
0.0
 48
0.0
140
3.5
141
0.09
142
0.0
143
25.4
144
1.0
145
0.0
146
1.0
147
0.875
 71
     0
 72
     0
 73
     0
 74
     1
 75
     0
 76
     0
 77
     1
 78
    12
170
     0
171
     2
172
     0
173
     1
174
     0
175
     0
176
     0
177
     0
178
     0
270
     2
271
     2
272
     2
273
     2
274
     2
340
C9
275
     0
280
     0
281
     0
282
     0
283
     1
284
    12
285
     0
286
     0
287
     3
288
     0
  0
DIMSTYLE
105
1AA
102
{ACAD_REACTORS
330
1A9
330
1C3
102
}
330
A
100
AcDbSymbolTableRecord
100
AcDbDimStyleTableRecord
  2
SLDDIMSTYLE1
 70
     0
  3

  4

  5

  6
CLOSED
  7
CLOSED
 40
1.0
 41
6.0
 42
0.0625
 43
0.38
 44
0.0
 45
0.000000001
 46
0.0
 47
0.0
 48
0.0
140
3.5
141
0.09
142
0.0
143
25.4
144
1.0
145
0.0
146
1.0
147
0.875
 71
     0
 72
     0
 73
     0
 74
     1
 75
     0
 76
     0
 77
     1
 78
    12
170
     0
171
     2
172
     0
173
     1
174
     0
175
     0
176
     0
177
     0
178
     0
270
     2
271
     2
272
     2
273
     2
274
     2
340
C9
275
     0
280
     0
281
     0
282
     0
283
     1
284
    12
285
     0
286
     0
287
     3
288
     0
  0
DIMSTYLE
105
1B7
102
{ACAD_REACTORS
330
1B6
102
}
330
A
100
AcDbSymbolTableRecord
100
AcDbDimStyleTableRecord
  2
SLDDIMSTYLE2
 70
     0
  3

  4

  5

  6
NONE
  7
CLOSED
 40
1.0
 41
6.0
 42
0.0625
 43
0.38
 44
0.0
 45
0.000000001
 46
0.0
 47
0.0
 48
0.0
140
3.5
141
0.0
142
0.0
143
25.4
144
1.0
145
0.0
146
1.0
147
0.875
 71
     0
 72
     0
 73
     0
 74
     1
 75
     0
 76
     0
 77
     1
 78
    12
170
     0
171
     2
172
     1
173
     1
174
     0
175
     0
176
     0
177
     0
178
     0
270
     2
271
     2
272
     2
273
     2
274
     2
340
C9
275
     0
280
     0
281
     0
282
     0
283
     1
284
    12
285
     0
286
     0
287
     3
288
     0
  0
ENDTAB
  0
TABLE
  2
BLOCK_RECORD
  5
1
330
0
100
AcDbSymbolTable
 70
    13
  0
BLOCK_RECORD
  5
1F
330
1
100
AcDbSymbolTableRecord
100
AcDbBlockTableRecord
  2
*MODEL_SPACE
  0
BLOCK_RECORD
  5
1B
330
1
100
AcDbSymbolTableRecord
100
AcDbBlockTableRecord
  2
*PAPER_SPACE
  0
BLOCK_RECORD
  5
23
330
1
100
AcDbSymbolTableRecord
100
AcDbBlockTableRecord
  2
*PAPER_SPACE0
  0
BLOCK_RECORD
  5
45
330
1
100
AcDbSymbolTableRecord
100
AcDbBlockTableRecord
  2
BLOK2
  0
BLOCK_RECORD
  5
CB
330
1
100
AcDbSymbolTableRecord
100
AcDbBlockTableRecord
  2
_CLOSED
  0
BLOCK_RECORD
  5
D2
330
1
100
AcDbSymbolTableRecord
100
AcDbBlockTableRecord
  2
*D3
  0
BLOCK_RECORD
  5
DC
330
1
100
AcDbSymbolTableRecord
100
AcDbBlockTableRecord
  2
*D4
  0
BLOCK_RECORD
  5
128
330
1
100
AcDbSymbolTableRecord
100
AcDbBlockTableRecord
  2
*D5
  0
BLOCK_RECORD
  5
132
330
1
100
AcDbSymbolTableRecord
100
AcDbBlockTableRecord
  2
*D6
  0
BLOCK_RECORD
  5
13D
330
1
100
AcDbSymbolTableRecord
100
AcDbBlockTableRecord
  2
*D7
  0
BLOCK_RECORD
  5
1A0
330
1
100
AcDbSymbolTableRecord
100
AcDbBlockTableRecord
  2
*D8
  0
BLOCK_RECORD
  5
1AB
330
1
100
AcDbSymbolTableRecord
100
AcDbBlockTableRecord
  2
*D9
  0
BLOCK_RECORD
  5
1B8
330
1
100
AcDbSymbolTableRecord
100
AcDbBlockTableRecord
  2
_NONE
  0
BLOCK_RECORD
  5
1BB
330
1
100
AcDbSymbolTableRecord
100
AcDbBlockTableRecord
  2
*D11
  0
BLOCK_RECORD
  5
1C4
330
1
100
AcDbSymbolTableRecord
100
AcDbBlockTableRecord
  2
*D12
  0
ENDTAB
  0
ENDSEC
  0
SECTION
  2
BLOCKS
  0
BLOCK
  5
20
330
1F
100
AcDbEntity
  8
0
100
AcDbBlockBegin
  2
*MODEL_SPACE
 70
     0
 10
0.0
 20
0.0
 30
0.0
  3
*MODEL_SPACE
  1

  0
ENDBLK
  5
21
330
1F
100
AcDbEntity
  8
0
100
AcDbBlockEnd
  0
BLOCK
  5
1C
330
1B
100
AcDbEntity
 67
     1
  8
0
100
AcDbBlockBegin
  2
*PAPER_SPACE
 70
     0
 10
0.0
 20
0.0
 30
0.0
  3
*PAPER_SPACE
  1

  0
ENDBLK
  5
1D
330
1B
100
AcDbEntity
 67
     1
  8
0
100
AcDbBlockEnd
  0
BLOCK
  5
24
330
23
100
AcDbEntity
  8
0
100
AcDbBlockBegin
  2
*PAPER_SPACE0
 70
     0
 10
0.0
 20
0.0
 30
0.0
  3
*PAPER_SPACE0
  1

  0
ENDBLK
  5
25
330
23
100
AcDbEntity
  8
0
100
AcDbBlockEnd
  0
BLOCK
  5
46
330
45
100
AcDbEntity
  8
0
100
AcDbBlockBegin
  2
BLOK2
 70
     0
 10
0.0
 20
0.0
 30
0.0
  3
BLOK2
  1

  0
LINE
  5
48
330
45
100
AcDbEntity
  8
0
  6
CONTINUOUS
 62
     7
100
AcDbLine
 10
5.1654442999
 20
72.522436177
 30
0.0
 11
-15.6965064476
 21
72.522436177
 31
0.0
  0
LINE
  5
49
330
45
100
AcDbEntity
  8
0
  6
CONTINUOUS
 62
     7
100
AcDbLine
 10
-4.8785425034
 20
65.553911782
 30
0.0
 11
17.9964034917
 21
65.553911782
 31
0.0
  0
LINE
  5
4A
330
45
100
AcDbEntity
  8
0
  6
CONTINUOUS
 62
     7
100
AcDbLine
 10
5.1654442999
 20
72.522436177
 30
0.0
 11
-1.7016404922
 21
73.4061325117
 31
0.0
  0
LINE
  5
4B
330
45
100
AcDbEntity
  8
0
  6
CONTINUOUS
 62
     7
100
AcDbLine
 10
-1.7016404922
 20
71.6724403163
 30
0.0
 11
5.1654442999
 21
72.522436177
 31
0.0
  0
LINE
  5
4C
330
45
100
AcDbEntity
  8
0
  6
CONTINUOUS
 62
     7
100
AcDbLine
 10
-4.8785425034
 20
65.553911782
 30
0.0
 11
1.6813748618
 21
66.2971411879
 31
0.0
  0
LINE
  5
4D
330
45
100
AcDbEntity
  8
0
  6
CONTINUOUS
 62
     7
100
AcDbLine
 10
1.6813748618
 20
64.8864452542
 30
0.0
 11
-4.8785425034
 21
65.553911782
 31
0.0
  0
ENDBLK
  5
47
330
45
100
AcDbEntity
  8
0
100
AcDbBlockEnd
  0
BLOCK
  5
CC
330
CB
100
AcDbEntity
  8
0
100
AcDbBlockBegin
  2
_CLOSED
 70
     0
 10
0.0
 20
0.0
 30
0.0
  3
_CLOSED
  1

  0
LINE
  5
CE
330
CB
100
AcDbEntity
  8
0
  6
BYBLOCK
 62
     0
100
AcDbLine
 10
-1.0
 20
0.166667
 30
0.0
 11
0.0
 21
0.0
 31
0.0
  0
LINE
  5
CF
330
CB
100
AcDbEntity
  8
0
  6
BYBLOCK
 62
     0
100
AcDbLine
 10
0.0
 20
0.0
 30
0.0
 11
-1.0
 21
-0.166667
 31
0.0
  0
LINE
  5
D0
330
CB
100
AcDbEntity
  8
0
  6
BYBLOCK
 62
     0
100
AcDbLine
 10
-1.0
 20
0.166667
 30
0.0
 11
-1.0
 21
-0.166667
 31
0.0
  0
LINE
  5
D1
330
CB
100
AcDbEntity
  8
0
  6
BYBLOCK
 62
     0
100
AcDbLine
 10
0.0
 20
0.0
 30
0.0
 11
-1.0
 21
0.0
 31
0.0
  0
ENDBLK
  5
CD
330
CB
100
AcDbEntity
  8
0
100
AcDbBlockEnd
  0
BLOCK
  5
D3
330
D2
100
AcDbEntity
  8
0
100
AcDbBlockBegin
  2
*D3
 70
     1
 10
0.0
 20
0.0
 30
0.0
  3
*D3
  1

  0
INSERT
  5
D5
330
D2
100
AcDbEntity
  8
0
  6
CONTINUOUS
 62
     7
100
AcDbBlockReference
  2
_CLOSED
 10
88.0915177649
 20
123.3188805976
 30
0.1
 41
6.0
 42
6.0
 50
90.0
  0
INSERT
  5
D6
330
D2
100
AcDbEntity
  8
0
  6
CONTINUOUS
 62
     7
100
AcDbBlockReference
  2
_CLOSED
 10
88.0915177649
 20
103.3188805976
 30
0.1
 41
6.0
 42
6.0
 50
270.0
  0
LINE
  5
D7
330
D2
100
AcDbEntity
  8
0
  6
CONTINUOUS
 62
     7
100
AcDbLine
 10
97.0915177649
 20
123.3188805976
 30
0.0
 11
87.0915177649
 21
123.3188805976
 31
0.0
  0
LINE
  5
D8
330
D2
100
AcDbEntity
  8
0
  6
CONTINUOUS
 62
     7
100
AcDbLine
 10
97.0915177649
 20
103.3188805976
 30
0.0
 11
87.0915177649
 21
103.3188805976
 31
0.0
  0
LINE
  5
D9
330
D2
100
AcDbEntity
  8
0
  6
CONTINUOUS
 62
     7
100
AcDbLine
 10
88.0915177649
 20
123.3188805976
 30
0.0
 11
88.0915177649
 21
103.3188805976
 31
0.0
  0
MTEXT
  5
DA
330
D2
100
AcDbEntity
  8
0
  6
CONTINUOUS
 62
     7
100
AcDbMText
 10
83.5797808503
 20
111.1516234167
 30
0.0
 40
3.5
 41
0.0
 71
     1
 72
     1
  1
20
  7
SLDTEXTSTYLE0
 11
-1.059690869644414E-14
 21
1.0
 31
0.0
  0
ENDBLK
  5
D4
330
D2
100
AcDbEntity
  8
0
100
AcDbBlockEnd
  0
BLOCK
  5
DD
330
DC
100
AcDbEntity
  8
0
100
AcDbBlockBegin
  2
*D4
 70
     1
 10
0.0
 20
0.0
 30
0.0
  3
*D4
  1

  0
INSERT
  5
DF
330
DC
100
AcDbEntity
  8
0
  6
CONTINUOUS
 62
     7
100
AcDbBlockReference
  2
_CLOSED
 10
180.9915177649
 20
120.1688805976
 30
0.1
 41
6.0
 42
6.0
 50
90.0
  0
INSERT
  5
E0
330
DC
100
AcDbEntity
  8
0
  6
CONTINUOUS
 62
     7
100
AcDbBlockReference
  2
_CLOSED
 10
180.9915177649
 20
106.4688805976
 30
0.1
 41
6.0
 42
6.0
 50
270.0
  0
LINE
  5
E1
330
DC
100
AcDbEntity
  8
0
  6
CONTINUOUS
 62
     7
100
AcDbLine
 10
171.9915177649
 20
120.1688805976
 30
0.0
 11
181.9915177649
 21
120.1688805976
 31
0.0
  0
LINE
  5
E2
330
DC
100
AcDbEntity
  8
0
  6
CONTINUOUS
 62
     7
100
AcDbLine
 10
171.9915177649
 20
106.4688805976
 30
0.0
 11
181.9915177649
 21
106.4688805976
 31
0.0
  0
LINE
  5
E3
330
DC
100
AcDbEntity
  8
0
  6
CONTINUOUS
 62
     7
100
AcDbLine
 10
180.9915177649
 20
120.1688805976
 30
0.0
 11
180.9915177649
 21
135.8223927996
 31
0.0
  0
LINE
  5
E4
330
DC
100
AcDbEntity
  8
0
  6
CONTINUOUS
 62
     7
100
AcDbLine
 10
180.9915177649
 20
120.1688805976
 30
0.0
 11
180.9915177649
 21
106.4688805976
 31
0.0
  0
MTEXT
  5
E5
330
DC
100
AcDbEntity
  8
0
  6
CONTINUOUS
 62
     7
100
AcDbMText
 10
176.4797808503
 20
125.1849992274
 30
0.0
 40
3.5
 41
0.0
 71
     1
 72
     1
  1
13,7
  7
SLDTEXTSTYLE0
 11
-1.059690869644414E-14
 21
1.0
 31
0.0
  0
ENDBLK
  5
DE
330
DC
100
AcDbEntity
  8
0
100
AcDbBlockEnd
  0
BLOCK
  5
129
330
128
100
AcDbEntity
  8
0
100
AcDbBlockBegin
  2
*D5
 70
     1
 10
0.0
 20
0.0
 30
0.0
  3
*D5
  1

  0
INSERT
  5
12B
330
128
100
AcDbEntity
  8
0
  6
CONTINUOUS
 62
     7
100
AcDbBlockReference
  2
_CLOSED
 10
88.0915177649
 20
196.9824913817
 30
0.1
 41
6.0
 42
6.0
 50
90.0
  0
INSERT
  5
12C
330
128
100
AcDbEntity
  8
0
  6
CONTINUOUS
 62
     7
100
AcDbBlockReference
  2
_CLOSED
 10
88.0915177649
 20
149.9824913817
 30
0.1
 41
6.0
 42
6.0
 50
270.0
  0
LINE
  5
12D
330
128
100
AcDbEntity
  8
0
  6
CONTINUOUS
 62
     7
100
AcDbLine
 10
97.0915177649
 20
196.9824913817
 30
0.0
 11
87.0915177649
 21
196.9824913817
 31
0.0
  0
LINE
  5
12E
330
128
100
AcDbEntity
  8
0
  6
CONTINUOUS
 62
     7
100
AcDbLine
 10
97.0915177649
 20
149.9824913817
 30
0.0
 11
87.0915177649
 21
149.9824913817
 31
0.0
  0
LINE
  5
12F
330
128
100
AcDbEntity
  8
0
  6
CONTINUOUS
 62
     7
100
AcDbLine
 10
88.0915177649
 20
196.9824913817
 30
0.0
 11
88.0915177649
 21
149.9824913817
 31
0.0
  0
MTEXT
  5
130
330
128
100
AcDbEntity
  8
0
  6
CONTINUOUS
 62
     7
100
AcDbMText
 10
83.5797808503
 20
171.4738228346
 30
0.0
 40
3.5
 41
0.0
 71
     1
 72
     1
  1
47
  7
SLDTEXTSTYLE0
 11
-7.044195017643634E-15
 21
1.0
 31
0.0
  0
ENDBLK
  5
12A
330
128
100
AcDbEntity
  8
0
100
AcDbBlockEnd
  0
BLOCK
  5
133
330
132
100
AcDbEntity
  8
0
100
AcDbBlockBegin
  2
*D6
 70
     1
 10
0.0
 20
0.0
 30
0.0
  3
*D6
  1

  0
INSERT
  5
135
330
132
100
AcDbEntity
  8
0
  6
CONTINUOUS
 62
     7
100
AcDbBlockReference
  2
_CLOSED
 10
180.9915177649
 20
180.3324913817
 30
0.1
 41
6.0
 42
6.0
 50
90.0
  0
INSERT
  5
136
330
132
100
AcDbEntity
  8
0
  6
CONTINUOUS
 62
     7
100
AcDbBlockReference
  2
_CLOSED
 10
180.9915177649
 20
166.6324913817
 30
0.1
 41
6.0
 42
6.0
 50
270.0
  0
LINE
  5
137
330
132
100
AcDbEntity
  8
0
  6
CONTINUOUS
 62
     7
100
AcDbLine
 10
171.9915177649
 20
180.3324913817
 30
0.0
 11
181.9915177649
 21
180.3324913817
 31
0.0
  0
LINE
  5
138
330
132
100
AcDbEntity
  8
0
  6
CONTINUOUS
 62
     7
100
AcDbLine
 10
171.9915177649
 20
166.6324913817
 30
0.0
 11
181.9915177649
 21
166.6324913817
 31
0.0
  0
LINE
  5
139
330
132
100
AcDbEntity
  8
0
  6
CONTINUOUS
 62
     7
100
AcDbLine
 10
180.9915177649
 20
180.3324913817
 30
0.0
 11
180.9915177649
 21
194.9551403981
 31
0.0
  0
LINE
  5
13A
330
132
100
AcDbEntity
  8
0
  6
CONTINUOUS
 62
     7
100
AcDbLine
 10
180.9915177649
 20
180.3324913817
 30
0.0
 11
180.9915177649
 21
166.6324913817
 31
0.0
  0
MTEXT
  5
13B
330
132
100
AcDbEntity
  8
0
  6
CONTINUOUS
 62
     7
100
AcDbMText
 10
176.4797808503
 20
184.3177468259
 30
0.0
 40
3.5
 41
0.0
 71
     1
 72
     1
  1
13,7
  7
SLDTEXTSTYLE0
 11
-7.044195017643634E-15
 21
1.0
 31
0.0
  0
ENDBLK
  5
134
330
132
100
AcDbEntity
  8
0
100
AcDbBlockEnd
  0
BLOCK
  5
13E
330
13D
100
AcDbEntity
  8
0
100
AcDbBlockBegin
  2
*D7
 70
     1
 10
0.0
 20
0.0
 30
0.0
  3
*D7
  1

  0
INSERT
  5
140
330
13D
100
AcDbEntity
  8
0
  6
CONTINUOUS
 62
     7
100
AcDbBlockReference
  2
_CLOSED
 10
98.0915177649
 20
139.9824913817
 30
0.1
 41
6.0
 42
6.0
 50
180.0
  0
INSERT
  5
141
330
13D
100
AcDbEntity
  8
0
  6
CONTINUOUS
 62
     7
100
AcDbBlockReference
  2
_CLOSED
 10
170.9915177649
 20
139.9824913817
 30
0.1
 41
6.0
 42
6.0
 50
360.0
  0
LINE
  5
142
330
13D
100
AcDbEntity
  8
0
  6
CONTINUOUS
 62
     7
100
AcDbLine
 10
98.0915177649
 20
148.9824913817
 30
0.0
 11
98.0915177649
 21
138.9824913817
 31
0.0
  0
LINE
  5
143
330
13D
100
AcDbEntity
  8
0
  6
CONTINUOUS
 62
     7
100
AcDbLine
 10
170.9915177649
 20
165.6324913817
 30
0.0
 11
170.9915177649
 21
138.9824913817
 31
0.0
  0
LINE
  5
144
330
13D
100
AcDbEntity
  8
0
  6
CONTINUOUS
 62
     7
100
AcDbLine
 10
98.0915177649
 20
139.9824913817
 30
0.0
 11
170.9915177649
 21
139.9824913817
 31
0.0
  0
MTEXT
  5
146
330
13D
100
AcDbEntity
  8
0
  6
CONTINUOUS
 62
     7
100
AcDbMText
 10
125.2000883678
 20
144.4942282963
 30
0.0
 40
3.5
 41
0.0
 71
     1
 72
     1
  1
75 - 120
  7
SLDTEXTSTYLE1
  0
ENDBLK
  5
13F
330
13D
100
AcDbEntity
  8
0
100
AcDbBlockEnd
  0
BLOCK
  5
1A1
330
1A0
100
AcDbEntity
  8
0
100
AcDbBlockBegin
  2
*D8
 70
     1
 10
0.0
 20
0.0
 30
0.0
  3
*D8
  1

  0
INSERT
  5
1A3
330
1A0
100
AcDbEntity
  8
0
  6
CONTINUOUS
 62
     7
100
AcDbBlockReference
  2
_CLOSED
 10
37.2238553516
 20
155.9824913817
 30
-36.35
 41
6.0
 42
6.0
 50
270.0
  0
INSERT
  5
1A4
330
1A0
100
AcDbEntity
  8
0
  6
CONTINUOUS
 62
     7
100
AcDbBlockReference
  2
_CLOSED
 10
37.2238553516
 20
190.9824913817
 30
-36.35
 41
6.0
 42
6.0
 50
90.0
  0
LINE
  5
1A5
330
1A0
100
AcDbEntity
  8
0
  6
CONTINUOUS
 62
     7
100
AcDbLine
 10
51.2238553516
 20
155.9824913817
 30
0.0
 11
36.2238553516
 21
155.9824913817
 31
0.0
  0
LINE
  5
1A6
330
1A0
100
AcDbEntity
  8
0
  6
CONTINUOUS
 62
     7
100
AcDbLine
 10
51.2238553516
 20
190.9824913817
 30
0.0
 11
36.2238553516
 21
190.9824913817
 31
0.0
  0
LINE
  5
1A7
330
1A0
100
AcDbEntity
  8
0
  6
CONTINUOUS
 62
     7
100
AcDbLine
 10
37.2238553516
 20
155.9824913817
 30
0.0
 11
37.2238553516
 21
190.9824913817
 31
0.0
  0
MTEXT
  5
1A8
330
1A0
100
AcDbEntity
  8
0
  6
CONTINUOUS
 62
     7
100
AcDbMText
 10
32.712118437
 20
170.6242143921
 30
0.0
 40
3.5
 41
0.0
 71
     1
 72
     1
  1
35
  7
SLDTEXTSTYLE0
 11
6.123233995736766E-17
 21
1.0
 31
0.0
  0
ENDBLK
  5
1A2
330
1A0
100
AcDbEntity
  8
0
100
AcDbBlockEnd
  0
BLOCK
  5
1AC
330
1AB
100
AcDbEntity
  8
0
100
AcDbBlockBegin
  2
*D9
 70
     1
 10
0.0
 20
0.0
 30
0.0
  3
*D9
  1

  0
INSERT
  5
1AE
330
1AB
100
AcDbEntity
  8
0
  6
CONTINUOUS
 62
     7
100
AcDbBlockReference
  2
_CLOSED
 10
75.3181516058
 20
158.9824913817
 30
-36.35
 41
6.0
 42
6.0
 50
270.0
  0
INSERT
  5
1AF
330
1AB
100
AcDbEntity
  8
0
  6
CONTINUOUS
 62
     7
100
AcDbBlockReference
  2
_CLOSED
 10
75.3181516058
 20
152.9824913817
 30
-36.35
 41
6.0
 42
6.0
 50
90.0
  0
LINE
  5
1B0
330
1AB
100
AcDbEntity
  8
0
  6
CONTINUOUS
 62
     7
100
AcDbLine
 10
63.2238553516
 20
158.9824913817
 30
0.0
 11
76.3181516058
 21
158.9824913817
 31
0.0
  0
LINE
  5
1B1
330
1AB
100
AcDbEntity
  8
0
  6
CONTINUOUS
 62
     7
100
AcDbLine
 10
63.2238553516
 20
152.9824913817
 30
0.0
 11
76.3181516058
 21
152.9824913817
 31
0.0
  0
LINE
  5
1B2
330
1AB
100
AcDbEntity
  8
0
  6
CONTINUOUS
 62
     7
100
AcDbLine
 10
75.3181516058
 20
158.9824913817
 30
0.0
 11
75.3181516058
 21
170.9824913817
 31
0.0
  0
LINE
  5
1B3
330
1AB
100
AcDbEntity
  8
0
  6
CONTINUOUS
 62
     7
100
AcDbLine
 10
75.3181516058
 20
158.9824913817
 30
0.0
 11
75.3181516058
 21
152.9824913817
 31
0.0
  0
LINE
  5
1B4
330
1AB
100
AcDbEntity
  8
0
  6
CONTINUOUS
 62
     7
100
AcDbLine
 10
75.3181516058
 20
152.9824913817
 30
0.0
 11
75.3181516058
 21
141.0876523369
 31
0.0
  0
MTEXT
  5
1B5
330
1AB
100
AcDbEntity
  8
0
  6
CONTINUOUS
 62
     7
100
AcDbMText
 10
70.8064146913
 20
142.6751523369
 30
0.0
 40
3.5
 41
0.0
 71
     1
 72
     1
  1
6
  7
SLDTEXTSTYLE0
 11
-7.044195017643634E-15
 21
1.0
 31
0.0
  0
ENDBLK
  5
1AD
330
1AB
100
AcDbEntity
  8
0
100
AcDbBlockEnd
  0
BLOCK
  5
1B9
330
1B8
100
AcDbEntity
  8
0
100
AcDbBlockBegin
  2
_NONE
 70
     0
 10
0.0
 20
0.0
 30
0.0
  3
_NONE
  1

  0
ENDBLK
  5
1BA
330
1B8
100
AcDbEntity
  8
0
100
AcDbBlockEnd
  0
BLOCK
  5
1BC
330
1BB
100
AcDbEntity
  8
0
100
AcDbBlockBegin
  2
*D11
 70
     1
 10
0.0
 20
0.0
 30
0.0
  3
*D11
  1

  0
INSERT
  5
1BE
330
1BB
100
AcDbEntity
  8
0
  6
CONTINUOUS
 62
     7
100
AcDbBlockReference
  2
_CLOSED
 10
64.8448789049
 20
177.8824913817
 30
-36.35
 41
6.0
 42
6.0
 50
210.0
  0
LINE
  5
1BF
330
1BB
100
AcDbEntity
  8
0
  6
CONTINUOUS
 62
     7
100
AcDbLine
 10
64.8448789049
 20
177.8824913817
 30
0.0
 11
84.2212916801
 21
189.0694685134
 31
0.0
  0
LINE
  5
1C0
330
1BB
100
AcDbEntity
  8
0
  6
CONTINUOUS
 62
     7
100
AcDbLine
 10
64.8448789049
 20
177.8824913817
 30
0.0
 11
49.6028317983
 21
169.0824913817
 31
0.0
  0
MTEXT
  5
1C1
330
1BB
100
AcDbEntity
  8
0
  6
CONTINUOUS
 62
     7
100
AcDbMText
 10
68.1937794388
 20
185.0017260259
 30
0.0
 40
3.5
 41
0.0
 71
     1
 72
     1
  1
%%c
  7
SLDTEXTSTYLE0
 11
0.8660254037844385
 21
0.5000000000000003
 31
0.0
  0
MTEXT
  5
1C2
330
1BB
100
AcDbEntity
  8
0
  6
CONTINUOUS
 62
     7
100
AcDbMText
 10
72.7635448086
 20
187.6400810907
 30
0.0
 40
3.5
 41
0.0
 71
     1
 72
     1
  1
17,6
  7
SLDTEXTSTYLE0
 11
0.8660254037844385
 21
0.5000000000000003
 31
0.0
  0
ENDBLK
  5
1BD
330
1BB
100
AcDbEntity
  8
0
100
AcDbBlockEnd
  0
BLOCK
  5
1C5
330
1C4
100
AcDbEntity
  8
0
100
AcDbBlockBegin
  2
*D12
 70
     1
 10
0.0
 20
0.0
 30
0.0
  3
*D12
  1

  0
INSERT
  5
1C7
330
1C4
100
AcDbEntity
  8
0
  6
CONTINUOUS
 62
     7
100
AcDbBlockReference
  2
_CLOSED
 10
49.2238553516
 20
136.3837403277
 30
-36.35
 41
6.0
 42
6.0
 50
360.0
  0
INSERT
  5
1C8
330
1C4
100
AcDbEntity
  8
0
  6
CONTINUOUS
 62
     7
100
AcDbBlockReference
  2
_CLOSED
 10
65.2238553516
 20
136.3837403277
 30
-36.35
 41
6.0
 42
6.0
 50
180.0
  0
LINE
  5
1C9
330
1C4
100
AcDbEntity
  8
0
  6
CONTINUOUS
 62
     7
100
AcDbLine
 10
49.2238553516
 20
154.9824913817
 30
0.0
 11
49.2238553516
 21
135.3837403277
 31
0.0
  0
LINE
  5
1CA
330
1C4
100
AcDbEntity
  8
0
  6
CONTINUOUS
 62
     7
100
AcDbLine
 10
65.2238553516
 20
154.9824913817
 30
0.0
 11
65.2238553516
 21
135.3837403277
 31
0.0
  0
LINE
  5
1CB
330
1C4
100
AcDbEntity
  8
0
  6
CONTINUOUS
 62
     7
100
AcDbLine
 10
49.2238553516
 20
136.3837403277
 30
0.0
 11
37.2238553516
 21
136.3837403277
 31
0.0
  0
LINE
  5
1CC
330
1C4
100
AcDbEntity
  8
0
  6
CONTINUOUS
 62
     7
100
AcDbLine
 10
49.2238553516
 20
136.3837403277
 30
0.0
 11
65.2238553516
 21
136.3837403277
 31
0.0
  0
LINE
  5
1CD
330
1C4
100
AcDbEntity
  8
0
  6
CONTINUOUS
 62
     7
100
AcDbLine
 10
65.2238553516
 20
136.3837403277
 30
0.0
 11
77.2238553516
 21
136.3837403277
 31
0.0
  0
MTEXT
  5
1CE
330
1C4
100
AcDbEntity
  8
0
  6
CONTINUOUS
 62
     7
100
AcDbMText
 10
55.110781437
 20
140.8954772423
 30
0.0
 40
3.5
 41
0.0
 71
     1
 72
     1
  1
16
  7
SLDTEXTSTYLE0
  0
ENDBLK
  5
1C6
330
1C4
100
AcDbEntity
  8
0
100
AcDbBlockEnd
  0
ENDSEC
  0
SECTION
  2
ENTITIES
  0
LINE
  5
4E
330
1F
100
AcDbEntity
  8
0
  6
CONTINUOUS
 62
     7
100
AcDbLine
 10
169.0915200895
 20
116.3188806237
 30
0.0
 11
168.0915180629
 21
116.3188806237
 31
0.0
  0
LINE
  5
4F
330
1F
100
AcDbEntity
  8
0
  6
CONTINUOUS
 62
     7
100
AcDbLine
 10
168.0915180629
 20
110.3188805715
 30
0.0
 11
169.0915200895
 21
110.3188805715
 31
0.0
  0
LINE
  5
50
330
1F
100
AcDbEntity
  8
0
  6
CONTINUOUS
 62
     7
100
AcDbLine
 10
166.5915150231
 20
104.5188806453
 30
0.0
 11
168.0915180629
 21
104.5188806453
 31
0.0
  0
LINE
  5
51
330
1F
100
AcDbEntity
  8
0
  6
CONTINUOUS
 62
     7
100
AcDbLine
 10
168.0915180629
 20
122.1188805499
 30
0.0
 11
166.5915150231
 21
122.1188805499
 31
0.0
  0
ARC
  5
52
330
1F
100
AcDbEntity
  8
0
  6
CONTINUOUS
 62
     7
100
AcDbCircle
 10
103.8915177649
 20
122.8188805976
 30
0.0
 40
0.5
100
AcDbArc
 50
180.0
 51
270.0
  0
ARC
  5
53
330
1F
100
AcDbEntity
  8
0
  6
CONTINUOUS
 62
     7
100
AcDbCircle
 10
103.8915177649
 20
103.8188805976
 30
0.0
 40
0.5
100
AcDbArc
 50
90.0
 51
180.0
  0
ARC
  5
54
330
1F
100
AcDbEntity
  8
0
  6
CONTINUOUS
 62
     7
100
AcDbCircle
 10
162.5915177649
 20
121.8188805976
 30
0.0
 40
0.5
100
AcDbArc
 50
0.0
 51
90.0
  0
ARC
  5
55
330
1F
100
AcDbEntity
  8
0
  6
CONTINUOUS
 62
     7
100
AcDbCircle
 10
162.5915177649
 20
104.8188805976
 30
0.0
 40
0.5
100
AcDbArc
 50
270.0
 51
0.0
  0
LINE
  5
56
330
1F
100
AcDbEntity
  8
0
  6
CONTINUOUS
 62
     7
100
AcDbLine
 10
103.8915176911
 20
104.318880985
 30
0.0
 11
162.5915143674
 21
104.318880985
 31
0.0
  0
LINE
  5
57
330
1F
100
AcDbEntity
  8
0
  6
CONTINUOUS
 62
     7
100
AcDbLine
 10
162.5915143674
 20
122.3188802102
 30
0.0
 11
103.8915176911
 21
122.3188802102
 31
0.0
  0
LINE
  5
58
330
1F
100
AcDbEntity
  8
0
  6
CONTINUOUS
 62
     7
100
AcDbLine
 10
166.5915150231
 20
116.0526900054
 30
0.0
 11
163.0915153807
 21
116.0526900054
 31
0.0
  0
LINE
  5
59
330
1F
100
AcDbEntity
  8
0
  6
CONTINUOUS
 62
     7
100
AcDbLine
 10
166.5915150231
 20
110.5850711898
 30
0.0
 11
163.0915153807
 21
110.5850711898
 31
0.0
  0
LINE
  5
5A
330
1F
100
AcDbEntity
  8
0
  6
CONTINUOUS
 62
     7
100
AcDbLine
 10
166.5915150231
 20
106.7188806334
 30
0.0
 11
163.0915153807
 21
106.7188806334
 31
0.0
  0
LINE
  5
5B
330
1F
100
AcDbEntity
  8
0
  6
CONTINUOUS
 62
     7
100
AcDbLine
 10
166.5915150231
 20
119.9188805618
 30
0.0
 11
163.0915153807
 21
119.9188805618
 31
0.0
  0
LINE
  5
5C
330
1F
100
AcDbEntity
  8
0
  6
CONTINUOUS
 62
     7
100
AcDbLine
 10
155.8698315209
 20
114.5688805697
 30
0.0
 11
155.1481422072
 21
113.3188805976
 31
0.0
  0
LINE
  5
5D
330
1F
100
AcDbEntity
  8
0
  6
CONTINUOUS
 62
     7
100
AcDbLine
 10
155.8698315209
 20
112.0688806255
 30
0.0
 11
155.1481422072
 21
113.3188805976
 31
0.0
  0
LINE
  5
5E
330
1F
100
AcDbEntity
  8
0
  6
CONTINUOUS
 62
     7
100
AcDbLine
 10
157.3132064229
 20
112.0688806255
 30
0.0
 11
155.8698315209
 21
112.0688806255
 31
0.0
  0
LINE
  5
5F
330
1F
100
AcDbEntity
  8
0
  6
CONTINUOUS
 62
     7
100
AcDbLine
 10
157.3132064229
 20
114.5688805697
 30
0.0
 11
155.8698315209
 21
114.5688805697
 31
0.0
  0
CIRCLE
  5
60
330
1F
100
AcDbEntity
  8
0
  6
CONTINUOUS
 62
     7
100
AcDbCircle
 10
156.5915177649
 20
113.3188805976
 30
0.0
 40
2.054999999999978
  0
LINE
  5
61
330
1F
100
AcDbEntity
  8
0
  6
CONTINUOUS
 62
     7
100
AcDbLine
 10
157.3132064229
 20
112.0688806255
 30
0.0
 11
158.0348920113
 21
113.3188805976
 31
0.0
  0
LINE
  5
62
330
1F
100
AcDbEntity
  8
0
  6
CONTINUOUS
 62
     7
100
AcDbLine
 10
157.3132064229
 20
114.5688805697
 30
0.0
 11
158.0348920113
 21
113.3188805976
 31
0.0
  0
LINE
  5
63
330
1F
100
AcDbEntity
  8
0
  6
CONTINUOUS
 62
     7
100
AcDbLine
 10
169.0915200895
 20
107.4688807563
 30
0.0
 11
169.0915200895
 21
119.1688804389
 31
0.0
  0
LINE
  5
64
330
1F
100
AcDbEntity
  8
0
  6
CONTINUOUS
 62
     7
100
AcDbLine
 10
170.9915149992
 20
107.4688807563
 30
0.0
 11
170.9915149992
 21
119.1688804389
 31
0.0
  0
LINE
  5
65
330
1F
100
AcDbEntity
  8
0
  6
CONTINUOUS
 62
     7
100
AcDbLine
 10
169.0915200895
 20
106.4688805924
 30
0.0
 11
170.9915149992
 21
106.4688805924
 31
0.0
  0
LINE
  5
66
330
1F
100
AcDbEntity
  8
0
  6
CONTINUOUS
 62
     7
100
AcDbLine
 10
169.0915200895
 20
106.4688805924
 30
0.0
 11
169.0915200895
 21
107.4688807563
 31
0.0
  0
LINE
  5
67
330
1F
100
AcDbEntity
  8
0
  6
CONTINUOUS
 62
     7
100
AcDbLine
 10
170.9915149992
 20
106.4688805924
 30
0.0
 11
170.9915149992
 21
107.4688807563
 31
0.0
  0
LINE
  5
68
330
1F
100
AcDbEntity
  8
0
  6
CONTINUOUS
 62
     7
100
AcDbLine
 10
169.0915200895
 20
120.1688806028
 30
0.0
 11
170.9915149992
 21
120.1688806028
 31
0.0
  0
LINE
  5
69
330
1F
100
AcDbEntity
  8
0
  6
CONTINUOUS
 62
     7
100
AcDbLine
 10
169.0915200895
 20
119.1688804389
 30
0.0
 11
169.0915200895
 21
120.1688806028
 31
0.0
  0
LINE
  5
6A
330
1F
100
AcDbEntity
  8
0
  6
CONTINUOUS
 62
     7
100
AcDbLine
 10
170.9915149992
 20
119.1688804389
 30
0.0
 11
170.9915149992
 21
120.1688806028
 31
0.0
  0
LINE
  5
6B
330
1F
100
AcDbEntity
  8
0
  6
CONTINUOUS
 62
     7
100
AcDbLine
 10
166.5915150231
 20
122.1188805499
 30
0.0
 11
166.5915150231
 21
104.5188806453
 31
0.0
  0
LINE
  5
6C
330
1F
100
AcDbEntity
  8
0
  6
CONTINUOUS
 62
     7
100
AcDbLine
 10
168.0915180629
 20
122.1188805499
 30
0.0
 11
168.0915180629
 21
104.5188806453
 31
0.0
  0
LINE
  5
6D
330
1F
100
AcDbEntity
  8
0
  6
CONTINUOUS
 62
     7
100
AcDbLine
 10
103.3915176092
 20
120.3188808137
 30
0.0
 11
103.3915176092
 21
106.3188803815
 31
0.0
  0
LINE
  5
6E
330
1F
100
AcDbEntity
  8
0
  6
CONTINUOUS
 62
     7
100
AcDbLine
 10
103.3915176092
 20
106.3188803815
 30
0.0
 11
103.3915176092
 21
103.8188809031
 31
0.0
  0
ARC
  5
6F
330
1F
100
AcDbEntity
  8
0
  6
CONTINUOUS
 62
     7
100
AcDbCircle
 10
102.8915177649
 20
103.8188805976
 30
0.0
 40
0.5
100
AcDbArc
 50
270.0
 51
0.0
  0
LINE
  5
70
330
1F
100
AcDbEntity
  8
0
  6
CONTINUOUS
 62
     7
100
AcDbLine
 10
102.8915179929
 20
103.3188808211
 30
0.0
 11
98.0915177649
 21
103.3188808211
 31
0.0
  0
LINE
  5
71
330
1F
100
AcDbEntity
  8
0
  6
CONTINUOUS
 62
     7
100
AcDbLine
 10
98.0915177649
 20
103.3188808211
 30
0.0
 11
98.0915177649
 21
106.3188803815
 31
0.0
  0
ARC
  5
72
330
1F
100
AcDbEntity
  8
0
  6
CONTINUOUS
 62
     7
100
AcDbCircle
 10
102.8915177649
 20
122.8188805976
 30
0.0
 40
0.5
100
AcDbArc
 50
0.0
 51
90.0
  0
LINE
  5
73
330
1F
100
AcDbEntity
  8
0
  6
CONTINUOUS
 62
     7
100
AcDbLine
 10
103.3915176092
 20
122.8188802921
 30
0.0
 11
103.3915176092
 21
120.3188808137
 31
0.0
  0
LINE
  5
74
330
1F
100
AcDbEntity
  8
0
  6
CONTINUOUS
 62
     7
100
AcDbLine
 10
98.0915177649
 20
123.3188803741
 30
0.0
 11
102.8915179929
 21
123.3188803741
 31
0.0
  0
LINE
  5
75
330
1F
100
AcDbEntity
  8
0
  6
CONTINUOUS
 62
     7
100
AcDbLine
 10
98.0915177649
 20
120.3188808137
 30
0.0
 11
98.0915177649
 21
123.3188803741
 31
0.0
  0
LINE
  5
76
330
1F
100
AcDbEntity
  8
0
  6
CONTINUOUS
 62
     7
100
AcDbLine
 10
98.0915177649
 20
120.3188808137
 30
0.0
 11
98.0915177649
 21
106.3188803815
 31
0.0
  0
ARC
  5
77
330
1F
100
AcDbEntity
  8
0
  6
CONTINUOUS
 62
     7
100
AcDbCircle
 10
103.8915177649
 20
107.8188805976
 30
0.0
 40
0.5
100
AcDbArc
 50
90.0
 51
180.0
  0
ARC
  5
78
330
1F
100
AcDbEntity
  8
0
  6
CONTINUOUS
 62
     7
100
AcDbCircle
 10
103.8915177649
 20
118.8188805976
 30
0.0
 40
0.5
100
AcDbArc
 50
180.0
 51
270.0
  0
CIRCLE
  5
79
330
1F
100
AcDbEntity
  8
0
  6
CONTINUOUS
 62
     7
100
AcDbCircle
 10
156.5915177649
 20
113.3188805976
 30
0.0
 40
2.099999999999994
  0
LINE
  5
7A
330
1F
100
AcDbEntity
  8
0
  6
CONTINUOUS
 62
     7
100
AcDbLine
 10
162.5915143674
 20
108.3188807094
 30
0.0
 11
103.8915176911
 21
108.3188807094
 31
0.0
  0
ARC
  5
7B
330
1F
100
AcDbEntity
  8
0
  6
CONTINUOUS
 62
     7
100
AcDbCircle
 10
162.5915177649
 20
117.8188805976
 30
0.0
 40
0.5
100
AcDbArc
 50
0.0
 51
90.0
  0
ARC
  5
7C
330
1F
100
AcDbEntity
  8
0
  6
CONTINUOUS
 62
     7
100
AcDbCircle
 10
162.5915177649
 20
108.8188805976
 30
0.0
 40
0.5
100
AcDbArc
 50
270.0
 51
0.0
  0
LINE
  5
7D
330
1F
100
AcDbEntity
  8
0
  6
CONTINUOUS
 62
     7
100
AcDbLine
 10
163.0915153807
 20
117.8188804039
 30
0.0
 11
163.0915153807
 21
108.8188807913
 31
0.0
  0
LINE
  5
7E
330
1F
100
AcDbEntity
  8
0
  6
CONTINUOUS
 62
     7
100
AcDbLine
 10
103.8915176911
 20
118.3188804858
 30
0.0
 11
162.5915143674
 21
118.3188804858
 31
0.0
  0
LINE
  5
7F
330
1F
100
AcDbEntity
  8
0
  6
CONTINUOUS
 62
     7
100
AcDbLine
 10
163.0915153807
 20
108.3978279927
 30
0.0
 11
163.0915153807
 21
108.8188807913
 31
0.0
  0
LINE
  5
80
330
1F
100
AcDbEntity
  8
0
  6
CONTINUOUS
 62
     7
100
AcDbLine
 10
163.0915153807
 20
117.8188804039
 30
0.0
 11
163.0915153807
 21
118.2399332025
 31
0.0
  0
LINE
  5
81
330
1F
100
AcDbEntity
  8
0
  6
CONTINUOUS
 62
     7
100
AcDbLine
 10
163.0915153807
 20
108.3978279927
 30
0.0
 11
163.0915153807
 21
104.8188801357
 31
0.0
  0
LINE
  5
82
330
1F
100
AcDbEntity
  8
0
  6
CONTINUOUS
 62
     7
100
AcDbLine
 10
163.0915153807
 20
121.8188810595
 30
0.0
 11
163.0915153807
 21
118.2399332025
 31
0.0
  0
LINE
  5
83
330
1F
100
AcDbEntity
  8
0
  6
PHANTOM
 62
     8
100
AcDbLine
 10
169.0915200895
 20
107.4688807563
 30
0.0
 11
170.9915149992
 21
107.4688807563
 31
0.0
  0
LINE
  5
84
330
1F
100
AcDbEntity
  8
0
  6
PHANTOM
 62
     8
100
AcDbLine
 10
169.0915200895
 20
119.1688804389
 30
0.0
 11
170.9915149992
 21
119.1688804389
 31
0.0
  0
LINE
  5
85
330
1F
100
AcDbEntity
  8
0
  6
PHANTOM
 62
     8
100
AcDbLine
 10
102.8915179929
 20
106.3188803815
 30
0.0
 11
102.8915179929
 21
120.3188808137
 31
0.0
  0
LINE
  5
86
330
1F
100
AcDbEntity
  8
0
  6
PHANTOM
 62
     8
100
AcDbLine
 10
102.8915179929
 20
120.3188808137
 30
0.0
 11
103.3915176092
 21
120.3188808137
 31
0.0
  0
LINE
  5
87
330
1F
100
AcDbEntity
  8
0
  6
PHANTOM
 62
     8
100
AcDbLine
 10
102.8915179929
 20
106.3188803815
 30
0.0
 11
103.3915176092
 21
106.3188803815
 31
0.0
  0
LINE
  5
88
330
1F
100
AcDbEntity
  8
0
  6
PHANTOM
 62
     8
100
AcDbLine
 10
102.8915179929
 20
103.3188808211
 30
0.0
 11
102.8915179929
 21
106.3188803815
 31
0.0
  0
LINE
  5
89
330
1F
100
AcDbEntity
  8
0
  6
PHANTOM
 62
     8
100
AcDbLine
 10
98.0915177649
 20
106.3188803815
 30
0.0
 11
102.8915179929
 21
106.3188803815
 31
0.0
  0
LINE
  5
8A
330
1F
100
AcDbEntity
  8
0
  6
PHANTOM
 62
     8
100
AcDbLine
 10
102.8915179929
 20
120.3188808137
 30
0.0
 11
102.8915179929
 21
123.3188803741
 31
0.0
  0
LINE
  5
8B
330
1F
100
AcDbEntity
  8
0
  6
PHANTOM
 62
     8
100
AcDbLine
 10
102.8915179929
 20
120.3188808137
 30
0.0
 11
98.0915177649
 21
120.3188808137
 31
0.0
  0
LINE
  5
8C
330
1F
100
AcDbEntity
  8
0
  6
PHANTOM
 62
     8
100
AcDbLine
 10
103.8915176911
 20
117.8188804039
 30
0.0
 11
103.8915176911
 21
108.8188807913
 31
0.0
  0
LINE
  5
8D
330
1F
100
AcDbEntity
  8
0
  6
PHANTOM
 62
     8
100
AcDbLine
 10
103.8915176911
 20
108.8188807913
 30
0.0
 11
103.3915176092
 21
108.8188807913
 31
0.0
  0
LINE
  5
8E
330
1F
100
AcDbEntity
  8
0
  6
PHANTOM
 62
     8
100
AcDbLine
 10
103.8915176911
 20
117.8188804039
 30
0.0
 11
103.3915176092
 21
117.8188804039
 31
0.0
  0
LINE
  5
8F
330
1F
100
AcDbEntity
  8
0
  6
PHANTOM
 62
     8
100
AcDbLine
 10
103.8915176911
 20
108.8188807913
 30
0.0
 11
103.8915176911
 21
108.3188807094
 31
0.0
  0
LINE
  5
90
330
1F
100
AcDbEntity
  8
0
  6
PHANTOM
 62
     8
100
AcDbLine
 10
103.8915176911
 20
118.3188804858
 30
0.0
 11
103.8915176911
 21
117.8188804039
 31
0.0
  0
LINE
  5
91
330
1F
100
AcDbEntity
  8
0
  6
PHANTOM
 62
     8
100
AcDbLine
 10
103.8915176911
 20
108.8188807913
 30
0.0
 11
162.5915143674
 21
108.8188807913
 31
0.0
  0
LINE
  5
92
330
1F
100
AcDbEntity
  8
0
  6
PHANTOM
 62
     8
100
AcDbLine
 10
162.5915143674
 20
117.8188804039
 30
0.0
 11
103.8915176911
 21
117.8188804039
 31
0.0
  0
LINE
  5
93
330
1F
100
AcDbEntity
  8
0
  6
PHANTOM
 62
     8
100
AcDbLine
 10
162.5915143674
 20
108.8188807913
 30
0.0
 11
162.5915143674
 21
117.8188804039
 31
0.0
  0
LINE
  5
94
330
1F
100
AcDbEntity
  8
0
  6
PHANTOM
 62
     8
100
AcDbLine
 10
162.5915143674
 20
108.8188807913
 30
0.0
 11
162.5915143674
 21
108.3188807094
 31
0.0
  0
LINE
  5
95
330
1F
100
AcDbEntity
  8
0
  6
PHANTOM
 62
     8
100
AcDbLine
 10
163.0915153807
 20
117.8188804039
 30
0.0
 11
162.5915143674
 21
117.8188804039
 31
0.0
  0
LINE
  5
96
330
1F
100
AcDbEntity
  8
0
  6
PHANTOM
 62
     8
100
AcDbLine
 10
162.5915143674
 20
118.3188804858
 30
0.0
 11
162.5915143674
 21
117.8188804039
 31
0.0
  0
LINE
  5
97
330
1F
100
AcDbEntity
  8
0
  6
PHANTOM
 62
     8
100
AcDbLine
 10
163.0915153807
 20
108.8188807913
 30
0.0
 11
162.5915143674
 21
108.8188807913
 31
0.0
  0
LINE
  5
98
330
1F
100
AcDbEntity
  8
0
  6
PHANTOM
 62
     8
100
AcDbLine
 10
103.8915176911
 20
108.3188807094
 30
0.0
 11
103.8915176911
 21
108.10835431
 31
0.0
  0
LWPOLYLINE
  5
99
330
1F
100
AcDbEntity
  8
0
  6
PHANTOM
 62
     8
100
AcDbPolyline
 90
        9
 70
   128
 43
0.0
 10
103.3915176092
 20
107.8188806274
 10
103.4011251329
 20
107.8753541657
 10
103.4295779688
 20
107.9296572567
 10
103.4757827444
 20
107.9797037379
 10
103.5379643587
 20
108.0235694968
 10
103.6137325725
 20
108.0595693053
 10
103.7001760712
 20
108.0863192179
 10
103.7939728273
 20
108.102791986
 10
103.8915176911
 20
108.10835431
  0
LINE
  5
9A
330
1F
100
AcDbEntity
  8
0
  6
PHANTOM
 62
     8
100
AcDbLine
 10
103.8915176911
 20
108.10835431
 30
0.0
 11
103.8915176911
 21
104.318880985
 31
0.0
  0
LINE
  5
9B
330
1F
100
AcDbEntity
  8
0
  6
PHANTOM
 62
     8
100
AcDbLine
 10
103.8915176911
 20
122.3188802102
 30
0.0
 11
103.8915176911
 21
118.5294068852
 31
0.0
  0
LWPOLYLINE
  5
9C
330
1F
100
AcDbEntity
  8
0
  6
PHANTOM
 62
     8
100
AcDbPolyline
 90
        9
 70
   128
 43
0.0
 10
103.3915176092
 20
118.8188805678
 10
103.4011251329
 20
118.7624070295
 10
103.4295779688
 20
118.7081039385
 10
103.4757827444
 20
118.6580574573
 10
103.5379643587
 20
118.6141916984
 10
103.6137325725
 20
118.5781918899
 10
103.7001760712
 20
118.5514419773
 10
103.7939728273
 20
118.5349692092
 10
103.8915176911
 20
118.5294068852
  0
LINE
  5
9D
330
1F
100
AcDbEntity
  8
0
  6
PHANTOM
 62
     8
100
AcDbLine
 10
103.8915176911
 20
118.5294068852
 30
0.0
 11
103.8915176911
 21
118.3188804858
 31
0.0
  0
LINE
  5
9E
330
1F
100
AcDbEntity
  8
0
  6
PHANTOM
 62
     8
100
AcDbLine
 10
162.5915143674
 20
108.3188807094
 30
0.0
 11
162.5915143674
 21
108.10835431
 31
0.0
  0
LWPOLYLINE
  5
9F
330
1F
100
AcDbEntity
  8
0
  6
PHANTOM
 62
     8
100
AcDbPolyline
 90
        9
 70
   128
 43
0.0
 10
162.5915143674
 20
108.10835431
 10
162.6890648192
 20
108.1139166341
 10
162.7828601783
 20
108.1303889365
 10
162.8693018144
 20
108.1571393148
 10
162.9450742191
 20
108.1931391233
 10
163.0072493142
 20
108.2370048822
 10
163.053457815
 20
108.2870513634
 10
163.0819115823
 20
108.3413544544
 10
163.0915153807
 20
108.3978279927
  0
LINE
  5
A0
330
1F
100
AcDbEntity
  8
0
  6
PHANTOM
 62
     8
100
AcDbLine
 10
162.5915143674
 20
108.10835431
 30
0.0
 11
103.8915176911
 21
108.10835431
 31
0.0
  0
LINE
  5
A1
330
1F
100
AcDbEntity
  8
0
  6
PHANTOM
 62
     8
100
AcDbLine
 10
162.5915143674
 20
118.5294068852
 30
0.0
 11
162.5915143674
 21
118.3188804858
 31
0.0
  0
LWPOLYLINE
  5
A2
330
1F
100
AcDbEntity
  8
0
  6
PHANTOM
 62
     8
100
AcDbPolyline
 90
        9
 70
   128
 43
0.0
 10
162.5915143674
 20
118.5294068852
 10
162.6890648192
 20
118.5238445611
 10
162.7828601783
 20
118.5073722587
 10
162.8693018144
 20
118.4806218804
 10
162.9450742191
 20
118.4446220719
 10
163.0072493142
 20
118.400756313
 10
163.053457815
 20
118.3507098318
 10
163.0819115823
 20
118.2964067408
 10
163.0915153807
 20
118.2399332025
  0
LINE
  5
A3
330
1F
100
AcDbEntity
  8
0
  6
PHANTOM
 62
     8
100
AcDbLine
 10
103.8915176911
 20
118.5294068852
 30
0.0
 11
162.5915143674
 21
118.5294068852
 31
0.0
  0
LINE
  5
A4
330
1F
100
AcDbEntity
  8
0
  6
PHANTOM
 62
     8
100
AcDbLine
 10
162.5915143674
 20
118.5294068852
 30
0.0
 11
162.5915143674
 21
122.3188802102
 31
0.0
  0
LINE
  5
A5
330
1F
100
AcDbEntity
  8
0
  6
PHANTOM
 62
     8
100
AcDbLine
 10
162.5915143674
 20
104.318880985
 30
0.0
 11
162.5915143674
 21
108.10835431
 31
0.0
  0
DIMENSION
  5
A6
330
1F
100
AcDbEntity
  8
0
  6
CONTINUOUS
 62
     7
100
AcDbDimension
  2
*D3
 10
88.0915177649
 20
103.3188805976
 30
0.0
 11
88.0915177649
 21
113.7373072944
 31
0.0
 70
   160
  3
SLDDIMSTYLE0
100
AcDbAlignedDimension
 13
98.0915177649
 23
123.3188805976
 33
0.0
 14
98.0915177649
 24
103.3188805976
 34
0.0
 50
90.0
100
AcDbRotatedDimension
  0
DIMENSION
  5
DB
330
1F
100
AcDbEntity
  8
0
  6
CONTINUOUS
 62
     7
100
AcDbDimension
  2
*D4
 10
180.9915177649
 20
106.4688805976
 30
0.0
 11
180.9915177649
 21
129.7099460135
 31
0.0
 70
   160
  3
SLDDIMSTYLE0
100
AcDbAlignedDimension
 13
170.9915177649
 23
120.1688805976
 33
0.0
 14
170.9915177649
 24
106.4688805976
 34
0.0
 50
90.0
100
AcDbRotatedDimension
  0
LINE
  5
E6
330
1F
100
AcDbEntity
  8
0
  6
CONTINUOUS
 62
     7
100
AcDbLine
 10
169.0915177649
 20
176.4824913817
 30
0.0
 11
168.0915177649
 21
176.4824913817
 31
0.0
  0
LINE
  5
E7
330
1F
100
AcDbEntity
  8
0
  6
CONTINUOUS
 62
     7
100
AcDbLine
 10
168.0915177649
 20
170.4824913817
 30
0.0
 11
169.0915177649
 21
170.4824913817
 31
0.0
  0
LINE
  5
E8
330
1F
100
AcDbEntity
  8
0
  6
CONTINUOUS
 62
     7
100
AcDbLine
 10
166.5915177649
 20
164.6824913817
 30
0.0
 11
168.0915177649
 21
164.6824913817
 31
0.0
  0
LINE
  5
E9
330
1F
100
AcDbEntity
  8
0
  6
CONTINUOUS
 62
     7
100
AcDbLine
 10
168.0915177649
 20
182.2824913817
 30
0.0
 11
166.5915177649
 21
182.2824913817
 31
0.0
  0
ARC
  5
EA
330
1F
100
AcDbEntity
  8
0
  6
CONTINUOUS
 62
     7
100
AcDbCircle
 10
103.8915177649
 20
163.9824913817
 30
0.0
 40
0.5
100
AcDbArc
 50
90.0
 51
180.0
  0
LINE
  5
EB
330
1F
100
AcDbEntity
  8
0
  6
CONTINUOUS
 62
     7
100
AcDbLine
 10
103.8915177649
 20
164.4824913817
 30
0.0
 11
162.5915177649
 21
164.4824913817
 31
0.0
  0
ARC
  5
EC
330
1F
100
AcDbEntity
  8
0
  6
CONTINUOUS
 62
     7
100
AcDbCircle
 10
162.5915177649
 20
164.9824913817
 30
0.0
 40
0.5
100
AcDbArc
 50
270.0
 51
0.0
  0
LINE
  5
ED
330
1F
100
AcDbEntity
  8
0
  6
CONTINUOUS
 62
     7
100
AcDbLine
 10
166.5915177649
 20
170.7486818701
 30
0.0
 11
163.0915177649
 21
170.7486818701
 31
0.0
  0
LINE
  5
EE
330
1F
100
AcDbEntity
  8
0
  6
CONTINUOUS
 62
     7
100
AcDbLine
 10
166.5915177649
 20
166.8824913817
 30
0.0
 11
163.0915177649
 21
166.8824913817
 31
0.0
  0
LINE
  5
EF
330
1F
100
AcDbEntity
  8
0
  6
CONTINUOUS
 62
     7
100
AcDbLine
 10
166.5915177649
 20
176.2163008934
 30
0.0
 11
163.0915177649
 21
176.2163008934
 31
0.0
  0
LINE
  5
F0
330
1F
100
AcDbEntity
  8
0
  6
CONTINUOUS
 62
     7
100
AcDbLine
 10
166.5915177649
 20
180.0824913817
 30
0.0
 11
163.0915177649
 21
180.0824913817
 31
0.0
  0
LINE
  5
F1
330
1F
100
AcDbEntity
  8
0
  6
CONTINUOUS
 62
     7
100
AcDbLine
 10
169.0915177649
 20
166.6324913817
 30
0.0
 11
170.9915177649
 21
166.6324913817
 31
0.0
  0
LINE
  5
F2
330
1F
100
AcDbEntity
  8
0
  6
CONTINUOUS
 62
     7
100
AcDbLine
 10
170.9915177649
 20
166.6324913817
 30
0.0
 11
170.9915177649
 21
167.6324913817
 31
0.0
  0
LINE
  5
F3
330
1F
100
AcDbEntity
  8
0
  6
CONTINUOUS
 62
     7
100
AcDbLine
 10
169.0915177649
 20
166.6324913817
 30
0.0
 11
169.0915177649
 21
167.6324913817
 31
0.0
  0
LINE
  5
F4
330
1F
100
AcDbEntity
  8
0
  6
CONTINUOUS
 62
     7
100
AcDbLine
 10
170.9915177649
 20
167.6324913817
 30
0.0
 11
170.9915177649
 21
179.3324913817
 31
0.0
  0
LINE
  5
F5
330
1F
100
AcDbEntity
  8
0
  6
CONTINUOUS
 62
     7
100
AcDbLine
 10
169.0915177649
 20
167.6324913817
 30
0.0
 11
169.0915177649
 21
179.3324913817
 31
0.0
  0
LINE
  5
F6
330
1F
100
AcDbEntity
  8
0
  6
CONTINUOUS
 62
     7
100
AcDbLine
 10
169.0915177649
 20
180.3324913817
 30
0.0
 11
170.9915177649
 21
180.3324913817
 31
0.0
  0
LINE
  5
F7
330
1F
100
AcDbEntity
  8
0
  6
CONTINUOUS
 62
     7
100
AcDbLine
 10
170.9915177649
 20
179.3324913817
 30
0.0
 11
170.9915177649
 21
180.3324913817
 31
0.0
  0
LINE
  5
F8
330
1F
100
AcDbEntity
  8
0
  6
CONTINUOUS
 62
     7
100
AcDbLine
 10
169.0915177649
 20
179.3324913817
 30
0.0
 11
169.0915177649
 21
180.3324913817
 31
0.0
  0
LINE
  5
F9
330
1F
100
AcDbEntity
  8
0
  6
CONTINUOUS
 62
     7
100
AcDbLine
 10
168.0915177649
 20
182.2824913817
 30
0.0
 11
168.0915177649
 21
164.6824913817
 31
0.0
  0
LINE
  5
FA
330
1F
100
AcDbEntity
  8
0
  6
CONTINUOUS
 62
     7
100
AcDbLine
 10
166.5915177649
 20
182.2824913817
 30
0.0
 11
166.5915177649
 21
164.6824913817
 31
0.0
  0
LINE
  5
FB
330
1F
100
AcDbEntity
  8
0
  6
CONTINUOUS
 62
     7
100
AcDbLine
 10
98.0915177649
 20
149.9824913817
 30
0.0
 11
98.0915177649
 21
152.9824913817
 31
0.0
  0
LINE
  5
FC
330
1F
100
AcDbEntity
  8
0
  6
CONTINUOUS
 62
     7
100
AcDbLine
 10
102.8915177649
 20
149.9824913817
 30
0.0
 11
98.0915177649
 21
149.9824913817
 31
0.0
  0
LINE
  5
FD
330
1F
100
AcDbEntity
  8
0
  6
CONTINUOUS
 62
     7
100
AcDbLine
 10
98.0915177649
 20
193.9824913817
 30
0.0
 11
98.0915177649
 21
152.9824913817
 31
0.0
  0
LINE
  5
FE
330
1F
100
AcDbEntity
  8
0
  6
CONTINUOUS
 62
     7
100
AcDbLine
 10
103.3915177649
 20
152.9824913817
 30
0.0
 11
103.3915177649
 21
150.4824913817
 31
0.0
  0
ARC
  5
FF
330
1F
100
AcDbEntity
  8
0
  6
CONTINUOUS
 62
     7
100
AcDbCircle
 10
102.8915177649
 20
150.4824913817
 30
0.0
 40
0.5
100
AcDbArc
 50
270.0
 51
0.0
  0
LINE
  5
100
330
1F
100
AcDbEntity
  8
0
  6
CONTINUOUS
 62
     7
100
AcDbLine
 10
103.3915177649
 20
193.9824913817
 30
0.0
 11
103.3915177649
 21
173.4824913817
 31
0.0
  0
LINE
  5
101
330
1F
100
AcDbEntity
  8
0
  6
CONTINUOUS
 62
     7
100
AcDbLine
 10
103.3915177649
 20
173.4824913817
 30
0.0
 11
103.3915177649
 21
152.9824913817
 31
0.0
  0
LINE
  5
102
330
1F
100
AcDbEntity
  8
0
  6
CONTINUOUS
 62
     7
100
AcDbLine
 10
98.0915177649
 20
196.9824913817
 30
0.0
 11
102.8915177649
 21
196.9824913817
 31
0.0
  0
LINE
  5
103
330
1F
100
AcDbEntity
  8
0
  6
CONTINUOUS
 62
     7
100
AcDbLine
 10
98.0915177649
 20
193.9824913817
 30
0.0
 11
98.0915177649
 21
196.9824913817
 31
0.0
  0
LINE
  5
104
330
1F
100
AcDbEntity
  8
0
  6
CONTINUOUS
 62
     7
100
AcDbLine
 10
103.3915177649
 20
196.4824913817
 30
0.0
 11
103.3915177649
 21
193.9824913817
 31
0.0
  0
ARC
  5
105
330
1F
100
AcDbEntity
  8
0
  6
CONTINUOUS
 62
     7
100
AcDbCircle
 10
102.8915177649
 20
196.4824913817
 30
0.0
 40
0.5
100
AcDbArc
 50
0.0
 51
90.0
  0
LINE
  5
106
330
1F
100
AcDbEntity
  8
0
  6
CONTINUOUS
 62
     7
100
AcDbLine
 10
163.0915177649
 20
180.4130931591
 30
0.0
 11
163.0915177649
 21
164.9824913817
 31
0.0
  0
ARC
  5
107
330
1F
100
AcDbEntity
  8
0
  6
CONTINUOUS
 62
     7
100
AcDbCircle
 10
103.8915177649
 20
184.9824913817
 30
0.0
 40
0.5
100
AcDbArc
 50
180.0
 51
270.0
  0
LINE
  5
108
330
1F
100
AcDbEntity
  8
0
  6
CONTINUOUS
 62
     7
100
AcDbLine
 10
163.0915177649
 20
180.4130931591
 30
0.0
 11
163.0915177649
 21
181.2284580741
 31
0.0
  0
LINE
  5
109
330
1F
100
AcDbEntity
  8
0
  6
CONTINUOUS
 62
     7
100
AcDbLine
 10
103.8915177649
 20
184.4824913817
 30
0.0
 11
162.5915177649
 21
184.4824913817
 31
0.0
  0
LINE
  5
10A
330
1F
100
AcDbEntity
  8
0
  6
CONTINUOUS
 62
     7
100
AcDbLine
 10
163.0915177649
 20
183.9824913817
 30
0.0
 11
163.0915177649
 21
181.2284580741
 31
0.0
  0
ARC
  5
10B
330
1F
100
AcDbEntity
  8
0
  6
CONTINUOUS
 62
     7
100
AcDbCircle
 10
162.5915177649
 20
183.9824913817
 30
0.0
 40
0.5
100
AcDbArc
 50
0.0
 51
90.0
  0
LINE
  5
10C
330
1F
100
AcDbEntity
  8
0
  6
PHANTOM
 62
     8
100
AcDbLine
 10
169.0915177649
 20
167.6324913817
 30
0.0
 11
170.9915177649
 21
167.6324913817
 31
0.0
  0
LINE
  5
10D
330
1F
100
AcDbEntity
  8
0
  6
PHANTOM
 62
     8
100
AcDbLine
 10
169.0915177649
 20
179.3324913817
 30
0.0
 11
170.9915177649
 21
179.3324913817
 31
0.0
  0
LINE
  5
10E
330
1F
100
AcDbEntity
  8
0
  6
PHANTOM
 62
     8
100
AcDbLine
 10
98.0915177649
 20
152.9824913817
 30
0.0
 11
102.8915177649
 21
152.9824913817
 31
0.0
  0
LINE
  5
10F
330
1F
100
AcDbEntity
  8
0
  6
PHANTOM
 62
     8
100
AcDbLine
 10
102.8915177649
 20
149.9824913817
 30
0.0
 11
102.8915177649
 21
152.9824913817
 31
0.0
  0
LINE
  5
110
330
1F
100
AcDbEntity
  8
0
  6
PHANTOM
 62
     8
100
AcDbLine
 10
102.8915177649
 20
193.9824913817
 30
0.0
 11
98.0915177649
 21
193.9824913817
 31
0.0
  0
LINE
  5
111
330
1F
100
AcDbEntity
  8
0
  6
PHANTOM
 62
     8
100
AcDbLine
 10
102.8915177649
 20
152.9824913817
 30
0.0
 11
102.8915177649
 21
193.9824913817
 31
0.0
  0
LINE
  5
112
330
1F
100
AcDbEntity
  8
0
  6
PHANTOM
 62
     8
100
AcDbLine
 10
103.3915177649
 20
152.9824913817
 30
0.0
 11
102.8915177649
 21
152.9824913817
 31
0.0
  0
LINE
  5
113
330
1F
100
AcDbEntity
  8
0
  6
PHANTOM
 62
     8
100
AcDbLine
 10
103.3915177649
 20
193.9824913817
 30
0.0
 11
102.8915177649
 21
193.9824913817
 31
0.0
  0
LINE
  5
114
330
1F
100
AcDbEntity
  8
0
  6
PHANTOM
 62
     8
100
AcDbLine
 10
102.8915177649
 20
193.9824913817
 30
0.0
 11
102.8915177649
 21
196.9824913817
 31
0.0
  0
ARC
  5
115
330
1F
100
AcDbEntity
  8
0
  6
PHANTOM
 62
     8
100
AcDbCircle
 10
103.849620258
 20
181.2798430505
 30
0.0
 40
0.4609753897577724
100
AcDbArc
 50
186.400067782
 51
275.2147420178
  0
LINE
  5
116
330
1F
100
AcDbEntity
  8
0
  6
PHANTOM
 62
     8
100
AcDbLine
 10
103.8915177649
 20
180.8207756166
 30
0.0
 11
103.8915177649
 21
164.4824913817
 31
0.0
  0
LINE
  5
117
330
1F
100
AcDbEntity
  8
0
  6
PHANTOM
 62
     8
100
AcDbLine
 10
162.5915177649
 20
180.8207756166
 30
0.0
 11
103.8915177649
 21
180.8207756166
 31
0.0
  0
LINE
  5
118
330
1F
100
AcDbEntity
  8
0
  6
PHANTOM
 62
     8
100
AcDbLine
 10
162.5915177649
 20
164.4824913817
 30
0.0
 11
162.5915177649
 21
180.8207756166
 31
0.0
  0
ARC
  5
119
330
1F
100
AcDbEntity
  8
0
  6
PHANTOM
 62
     8
100
AcDbCircle
 10
162.6334152718
 20
180.3617081827
 30
0.0
 40
0.4609753897578912
100
AcDbArc
 50
6.400067782
 51
95.2147420178
  0
LINE
  5
11A
330
1F
100
AcDbEntity
  8
0
  6
PHANTOM
 62
     8
100
AcDbLine
 10
103.8915177649
 20
181.2284580741
 30
0.0
 11
103.8915177649
 21
180.8207756166
 31
0.0
  0
LINE
  5
11B
330
1F
100
AcDbEntity
  8
0
  6
PHANTOM
 62
     8
100
AcDbLine
 10
103.8915177649
 20
181.2284580741
 30
0.0
 11
103.3915177649
 21
181.2284580741
 31
0.0
  0
LINE
  5
11C
330
1F
100
AcDbEntity
  8
0
  6
PHANTOM
 62
     8
100
AcDbLine
 10
103.8915177649
 20
183.9824913817
 30
0.0
 11
103.8915177649
 21
181.2284580741
 31
0.0
  0
LINE
  5
11D
330
1F
100
AcDbEntity
  8
0
  6
PHANTOM
 62
     8
100
AcDbLine
 10
103.3915177649
 20
183.9824913817
 30
0.0
 11
103.8915177649
 21
183.9824913817
 31
0.0
  0
LINE
  5
11E
330
1F
100
AcDbEntity
  8
0
  6
PHANTOM
 62
     8
100
AcDbLine
 10
103.8915177649
 20
184.4824913817
 30
0.0
 11
103.8915177649
 21
183.9824913817
 31
0.0
  0
LINE
  5
11F
330
1F
100
AcDbEntity
  8
0
  6
PHANTOM
 62
     8
100
AcDbLine
 10
103.8915177649
 20
181.2284580741
 30
0.0
 11
162.5915177649
 21
181.2284580741
 31
0.0
  0
LINE
  5
120
330
1F
100
AcDbEntity
  8
0
  6
PHANTOM
 62
     8
100
AcDbLine
 10
162.5915177649
 20
181.2284580741
 30
0.0
 11
162.5915177649
 21
180.8207756166
 31
0.0
  0
LINE
  5
121
330
1F
100
AcDbEntity
  8
0
  6
PHANTOM
 62
     8
100
AcDbLine
 10
162.5915177649
 20
181.2284580741
 30
0.0
 11
163.0915177649
 21
181.2284580741
 31
0.0
  0
LINE
  5
122
330
1F
100
AcDbEntity
  8
0
  6
PHANTOM
 62
     8
100
AcDbLine
 10
162.5915177649
 20
183.9824913817
 30
0.0
 11
103.8915177649
 21
183.9824913817
 31
0.0
  0
LINE
  5
123
330
1F
100
AcDbEntity
  8
0
  6
PHANTOM
 62
     8
100
AcDbLine
 10
162.5915177649
 20
181.2284580741
 30
0.0
 11
162.5915177649
 21
183.9824913817
 31
0.0
  0
LINE
  5
124
330
1F
100
AcDbEntity
  8
0
  6
PHANTOM
 62
     8
100
AcDbLine
 10
162.5915177649
 20
184.4824913817
 30
0.0
 11
162.5915177649
 21
183.9824913817
 31
0.0
  0
LINE
  5
125
330
1F
100
AcDbEntity
  8
0
  6
PHANTOM
 62
     8
100
AcDbLine
 10
163.0915177649
 20
183.9824913817
 30
0.0
 11
162.5915177649
 21
183.9824913817
 31
0.0
  0
INSERT
  5
126
330
1F
100
AcDbEntity
  8
0
  6
CONTINUOUS
 62
     7
100
AcDbBlockReference
  2
BLOK2
 10
132.563159735
 20
110.5502929621
 30
0.0
 41
0.5882352941
 42
0.5882352941
 43
0.5882352941
  0
DIMENSION
  5
127
330
1F
100
AcDbEntity
  8
0
  6
CONTINUOUS
 62
     7
100
AcDbDimension
  2
*D5
 10
88.0915177649
 20
149.9824913817
 30
0.0
 11
88.0915177649
 21
174.0595067124
 31
0.0
 70
   160
  3
SLDDIMSTYLE0
100
AcDbAlignedDimension
 13
98.0915177649
 23
196.9824913817
 33
0.0
 14
98.0915177649
 24
149.9824913817
 34
0.0
 50
90.0
100
AcDbRotatedDimension
  0
DIMENSION
  5
131
330
1F
100
AcDbEntity
  8
0
  6
CONTINUOUS
 62
     7
100
AcDbDimension
  2
*D6
 10
180.9915177649
 20
166.6324913817
 30
0.0
 11
180.9915177649
 21
188.842693612
 31
0.0
 70
   160
  3
SLDDIMSTYLE0
100
AcDbAlignedDimension
 13
170.9915177649
 23
180.3324913817
 33
0.0
 14
170.9915177649
 24
166.6324913817
 34
0.0
 50
90.0
100
AcDbRotatedDimension
  0
DIMENSION
  5
13C
330
1F
100
AcDbEntity
  8
0
  6
CONTINUOUS
 62
     7
100
AcDbDimension
  2
*D7
 10
170.9915177649
 20
139.9824913817
 30
0.0
 11
133.7328451644
 21
139.9824913817
 31
0.0
 70
   160
  3
SLDDIMSTYLE0
100
AcDbAlignedDimension
 13
98.0915177649
 23
149.9824913817
 33
0.0
 14
170.9915177649
 24
166.6324913817
 34
0.0
100
AcDbRotatedDimension
  0
ARC
  5
147
330
1F
100
AcDbEntity
  8
0
  6
CONTINUOUS
 62
     7
100
AcDbCircle
 10
63.0738553516
 20
167.6324913817
 30
0.0
 40
1.0
100
AcDbArc
 50
270.0
 51
0.0
  0
LINE
  5
148
330
1F
100
AcDbEntity
  8
0
  6
CONTINUOUS
 62
     7
100
AcDbLine
 10
64.0738553516
 20
179.3324913817
 30
0.0
 11
64.0738553516
 21
167.6324913817
 31
0.0
  0
ARC
  5
149
330
1F
100
AcDbEntity
  8
0
  6
CONTINUOUS
 62
     7
100
AcDbCircle
 10
63.0738553516
 20
179.3324913817
 30
0.0
 40
1.0
100
AcDbArc
 50
0.0
 51
90.0
  0
LINE
  5
14A
330
1F
100
AcDbEntity
  8
0
  6
CONTINUOUS
 62
     7
100
AcDbLine
 10
51.3738553516
 20
180.3324913817
 30
0.0
 11
63.0738553516
 21
180.3324913817
 31
0.0
  0
ARC
  5
14B
330
1F
100
AcDbEntity
  8
0
  6
CONTINUOUS
 62
     7
100
AcDbCircle
 10
51.3738553516
 20
179.3324913817
 30
0.0
 40
1.0
100
AcDbArc
 50
90.0
 51
180.0
  0
LINE
  5
14C
330
1F
100
AcDbEntity
  8
0
  6
CONTINUOUS
 62
     7
100
AcDbLine
 10
50.3738553516
 20
167.6324913817
 30
0.0
 11
50.3738553516
 21
179.3324913817
 31
0.0
  0
ARC
  5
14D
330
1F
100
AcDbEntity
  8
0
  6
CONTINUOUS
 62
     7
100
AcDbCircle
 10
51.3738553516
 20
167.6324913817
 30
0.0
 40
1.0
100
AcDbArc
 50
180.0
 51
270.0
  0
LINE
  5
14E
330
1F
100
AcDbEntity
  8
0
  6
CONTINUOUS
 62
     7
100
AcDbLine
 10
63.0738553516
 20
166.6324913817
 30
0.0
 11
51.3738553516
 21
166.6324913817
 31
0.0
  0
ARC
  5
14F
330
1F
100
AcDbEntity
  8
0
  6
CONTINUOUS
 62
     7
100
AcDbCircle
 10
57.2238553516
 20
173.4824913817
 30
0.0
 40
8.799999999999997
100
AcDbArc
 50
0.0
 51
38.8848568231
  0
ARC
  5
150
330
1F
100
AcDbEntity
  8
0
  6
CONTINUOUS
 62
     7
100
AcDbCircle
 10
57.2238553516
 20
173.4824913817
 30
0.0
 40
8.799999999999986
100
AcDbArc
 50
51.1151431769
 51
128.8848568231
  0
ARC
  5
151
330
1F
100
AcDbEntity
  8
0
  6
CONTINUOUS
 62
     7
100
AcDbCircle
 10
57.2238553516
 20
173.4824913817
 30
0.0
 40
8.8
100
AcDbArc
 50
141.1151431769
 51
218.8848568231
  0
ARC
  5
152
330
1F
100
AcDbEntity
  8
0
  6
CONTINUOUS
 62
     7
100
AcDbCircle
 10
57.2238553516
 20
173.4824913817
 30
0.0
 40
8.80000000000001
100
AcDbArc
 50
231.1151431769
 51
308.8848568231
  0
ARC
  5
153
330
1F
100
AcDbEntity
  8
0
  6
CONTINUOUS
 62
     7
100
AcDbCircle
 10
57.2238553516
 20
173.4824913817
 30
0.0
 40
8.800000000000008
100
AcDbArc
 50
321.1151431769
 51
0.0
  0
LINE
  5
154
330
1F
100
AcDbEntity
  8
0
  6
CONTINUOUS
 62
     7
100
AcDbLine
 10
52.7238553516
 20
184.4824913817
 30
0.0
 11
61.7238553516
 21
184.4824913817
 31
0.0
  0
LINE
  5
155
330
1F
100
AcDbEntity
  8
0
  6
CONTINUOUS
 62
     7
100
AcDbLine
 10
52.2238553516
 20
181.2284580741
 30
0.0
 11
52.2238553516
 21
183.9824913817
 31
0.0
  0
LINE
  5
156
330
1F
100
AcDbEntity
  8
0
  6
CONTINUOUS
 62
     7
100
AcDbLine
 10
62.2238553516
 20
183.9824913817
 30
0.0
 11
62.2238553516
 21
181.2284580741
 31
0.0
  0
ARC
  5
157
330
1F
100
AcDbEntity
  8
0
  6
CONTINUOUS
 62
     7
100
AcDbCircle
 10
62.7238553516
 20
181.2284580741
 30
0.0
 40
0.4999999999999929
100
AcDbArc
 50
180.0
 51
234.6234598481
  0
ARC
  5
158
330
1F
100
AcDbEntity
  8
0
  6
CONTINUOUS
 62
     7
100
AcDbCircle
 10
61.7238553516
 20
183.9824913817
 30
0.0
 40
0.5
100
AcDbArc
 50
0.0
 51
90.0
  0
LWPOLYLINE
  5
159
330
1F
100
AcDbEntity
  8
0
  6
CONTINUOUS
 62
     7
100
AcDbPolyline
 90
        3
 70
   128
 43
0.0
 10
62.4343816674
 20
180.8207756166
 10
63.0231656853
 20
180.3649327838
 10
63.0614490339
 20
180.3324913817
  0
ARC
  5
15A
330
1F
100
AcDbEntity
  8
0
  6
CONTINUOUS
 62
     7
100
AcDbCircle
 10
57.2238553516
 20
173.4824913817
 30
0.0
 40
9.000000000000002
100
AcDbArc
 50
319.5622491409
 51
40.4377508591
  0
ARC
  5
15B
330
1F
100
AcDbEntity
  8
0
  6
CONTINUOUS
 62
     7
100
AcDbCircle
 10
57.2238553516
 20
173.4824913817
 30
0.0
 40
9.000000000000002
100
AcDbArc
 50
229.5622491409
 51
310.4377508591
  0
ARC
  5
15C
330
1F
100
AcDbEntity
  8
0
  6
CONTINUOUS
 62
     7
100
AcDbCircle
 10
57.2238553516
 20
173.4824913817
 30
0.0
 40
9.000000000000004
100
AcDbArc
 50
139.5622491409
 51
220.4377508591
  0
LWPOLYLINE
  5
15D
330
1F
100
AcDbEntity
  8
0
  6
CONTINUOUS
 62
     7
100
AcDbPolyline
 90
        3
 70
   128
 43
0.0
 10
51.3862616693
 20
180.3324913817
 10
51.4245450179
 20
180.3649327838
 10
52.0133290358
 20
180.8207756166
  0
ARC
  5
15E
330
1F
100
AcDbEntity
  8
0
  6
CONTINUOUS
 62
     7
100
AcDbCircle
 10
51.7238553516
 20
181.2284580741
 30
0.0
 40
0.5
100
AcDbArc
 50
305.3765401519
 51
0.0
  0
ARC
  5
15F
330
1F
100
AcDbEntity
  8
0
  6
CONTINUOUS
 62
     7
100
AcDbCircle
 10
52.7238553516
 20
183.9824913817
 30
0.0
 40
0.5000000000000071
100
AcDbArc
 50
90.0
 51
180.0
  0
ARC
  5
160
330
1F
100
AcDbEntity
  8
0
  6
CONTINUOUS
 62
     7
100
AcDbCircle
 10
50.2238553516
 20
193.9824913817
 30
0.0
 40
3.0
100
AcDbArc
 50
90.0
 51
180.0
  0
LINE
  5
161
330
1F
100
AcDbEntity
  8
0
  6
CONTINUOUS
 62
     7
100
AcDbLine
 10
64.2238553516
 20
149.9824913817
 30
0.0
 11
50.2238553516
 21
149.9824913817
 31
0.0
  0
LINE
  5
162
330
1F
100
AcDbEntity
  8
0
  6
CONTINUOUS
 62
     7
100
AcDbLine
 10
67.2238553516
 20
193.9824913817
 30
0.0
 11
67.2238553516
 21
152.9824913817
 31
0.0
  0
LINE
  5
163
330
1F
100
AcDbEntity
  8
0
  6
CONTINUOUS
 62
     7
100
AcDbLine
 10
50.2238553516
 20
196.9824913817
 30
0.0
 11
64.2238553516
 21
196.9824913817
 31
0.0
  0
ARC
  5
164
330
1F
100
AcDbEntity
  8
0
  6
CONTINUOUS
 62
     7
100
AcDbCircle
 10
64.2238553516
 20
152.9824913817
 30
0.0
 40
3.0
100
AcDbArc
 50
270.0
 51
0.0
  0
ARC
  5
165
330
1F
100
AcDbEntity
  8
0
  6
CONTINUOUS
 62
     7
100
AcDbCircle
 10
64.2238553516
 20
193.9824913817
 30
0.0
 40
3.0
100
AcDbArc
 50
0.0
 51
90.0
  0
LINE
  5
166
330
1F
100
AcDbEntity
  8
0
  6
CONTINUOUS
 62
     7
100
AcDbLine
 10
47.2238553516
 20
152.9824913817
 30
0.0
 11
47.2238553516
 21
193.9824913817
 31
0.0
  0
ARC
  5
167
330
1F
100
AcDbEntity
  8
0
  6
CONTINUOUS
 62
     7
100
AcDbCircle
 10
50.2238553516
 20
152.9824913817
 30
0.0
 40
3.0
100
AcDbArc
 50
180.0
 51
270.0
  0
ARC
  5
168
330
1F
100
AcDbEntity
  8
0
  6
CONTINUOUS
 62
     7
100
AcDbCircle
 10
62.2238553516
 20
155.9824913817
 30
0.0
 40
3.000000000000028
100
AcDbArc
 50
270.0
 51
90.0
  0
LINE
  5
169
330
1F
100
AcDbEntity
  8
0
  6
CONTINUOUS
 62
     7
100
AcDbLine
 10
62.2238553516
 20
158.9824913817
 30
0.0
 11
52.2238553516
 21
158.9824913817
 31
0.0
  0
ARC
  5
16A
330
1F
100
AcDbEntity
  8
0
  6
CONTINUOUS
 62
     7
100
AcDbCircle
 10
52.2238553516
 20
155.9824913817
 30
0.0
 40
3.000000000000028
100
AcDbArc
 50
90.0
 51
270.0
  0
LINE
  5
16B
330
1F
100
AcDbEntity
  8
0
  6
CONTINUOUS
 62
     7
100
AcDbLine
 10
52.2238553516
 20
152.9824913817
 30
0.0
 11
62.2238553516
 21
152.9824913817
 31
0.0
  0
ARC
  5
16C
330
1F
100
AcDbEntity
  8
0
  6
CONTINUOUS
 62
     7
100
AcDbCircle
 10
52.2238553516
 20
190.9824913817
 30
0.0
 40
3.0
100
AcDbArc
 50
90.0
 51
270.0
  0
LINE
  5
16D
330
1F
100
AcDbEntity
  8
0
  6
CONTINUOUS
 62
     7
100
AcDbLine
 10
52.2238553516
 20
187.9824913817
 30
0.0
 11
62.2238553516
 21
187.9824913817
 31
0.0
  0
LINE
  5
16E
330
1F
100
AcDbEntity
  8
0
  6
CONTINUOUS
 62
     7
100
AcDbLine
 10
62.2238553516
 20
193.9824913817
 30
0.0
 11
52.2238553516
 21
193.9824913817
 31
0.0
  0
ARC
  5
16F
330
1F
100
AcDbEntity
  8
0
  6
CONTINUOUS
 62
     7
100
AcDbCircle
 10
62.2238553516
 20
190.9824913817
 30
0.0
 40
3.0
100
AcDbArc
 50
270.0
 51
90.0
  0
LINE
  5
170
330
1F
100
AcDbEntity
  8
0
  6
PHANTOM
 62
     8
100
AcDbLine
 10
61.7238553516
 20
183.9824913817
 30
0.0
 11
52.7238553516
 21
183.9824913817
 31
0.0
  0
LINE
  5
171
330
1F
100
AcDbEntity
  8
0
  6
PHANTOM
 62
     8
100
AcDbLine
 10
52.7238553516
 20
183.9824913817
 30
0.0
 11
52.7238553516
 21
184.4824913817
 31
0.0
  0
LINE
  5
172
330
1F
100
AcDbEntity
  8
0
  6
PHANTOM
 62
     8
100
AcDbLine
 10
61.7238553516
 20
183.9824913817
 30
0.0
 11
61.7238553516
 21
184.4824913817
 31
0.0
  0
LINE
  5
173
330
1F
100
AcDbEntity
  8
0
  6
PHANTOM
 62
     8
100
AcDbLine
 10
52.7238553516
 20
183.9824913817
 30
0.0
 11
52.7238553516
 21
181.2284580741
 31
0.0
  0
LINE
  5
174
330
1F
100
AcDbEntity
  8
0
  6
PHANTOM
 62
     8
100
AcDbLine
 10
52.2238553516
 20
181.2284580741
 30
0.0
 11
52.7238553516
 21
181.2284580741
 31
0.0
  0
LINE
  5
175
330
1F
100
AcDbEntity
  8
0
  6
PHANTOM
 62
     8
100
AcDbLine
 10
52.7238553516
 20
183.9824913817
 30
0.0
 11
52.2238553516
 21
183.9824913817
 31
0.0
  0
LINE
  5
176
330
1F
100
AcDbEntity
  8
0
  6
PHANTOM
 62
     8
100
AcDbLine
 10
61.7238553516
 20
181.2284580741
 30
0.0
 11
61.7238553516
 21
183.9824913817
 31
0.0
  0
LINE
  5
177
330
1F
100
AcDbEntity
  8
0
  6
PHANTOM
 62
     8
100
AcDbLine
 10
61.7238553516
 20
183.9824913817
 30
0.0
 11
62.2238553516
 21
183.9824913817
 31
0.0
  0
LINE
  5
178
330
1F
100
AcDbEntity
  8
0
  6
PHANTOM
 62
     8
100
AcDbLine
 10
62.2238553516
 20
181.2284580741
 30
0.0
 11
61.7238553516
 21
181.2284580741
 31
0.0
  0
LINE
  5
179
330
1F
100
AcDbEntity
  8
0
  6
PHANTOM
 62
     8
100
AcDbLine
 10
62.4343816674
 20
180.8207756166
 30
0.0
 11
62.3185921937
 21
180.6577026336
 31
0.0
  0
LWPOLYLINE
  5
17A
330
1F
100
AcDbEntity
  8
0
  6
PHANTOM
 62
     8
100
AcDbPolyline
 90
        3
 70
   128
 43
0.0
 10
61.7238553516
 20
181.2284580741
 10
61.730947685
 20
181.1095700356
 10
61.7430556559
 20
181.0334402366
  0
LINE
  5
17B
330
1F
100
AcDbEntity
  8
0
  6
PHANTOM
 62
     8
100
AcDbLine
 10
52.0133290358
 20
180.8207756166
 30
0.0
 11
52.1291185095
 21
180.6577026336
 31
0.0
  0
LWPOLYLINE
  5
17C
330
1F
100
AcDbEntity
  8
0
  6
PHANTOM
 62
     8
100
AcDbPolyline
 90
        3
 70
   128
 43
0.0
 10
52.7046550473
 20
181.0334402366
 10
52.7167630181
 20
181.1095700356
 10
52.7238553516
 20
181.2284580741
  0
LINE
  5
17D
330
1F
100
AcDbEntity
  8
0
  6
PHANTOM
 62
     8
100
AcDbLine
 10
61.7238553516
 20
184.4824913817
 30
0.0
 11
61.7238553516
 21
184.9824913817
 31
0.0
  0
ARC
  5
17E
330
1F
100
AcDbEntity
  8
0
  6
PHANTOM
 62
     8
100
AcDbCircle
 10
61.7238553516
 20
183.9824913817
 30
0.0
 40
1.0
100
AcDbArc
 50
0.0
 51
90.0
  0
LINE
  5
17F
330
1F
100
AcDbEntity
  8
0
  6
PHANTOM
 62
     8
100
AcDbLine
 10
62.2238553516
 20
183.9824913817
 30
0.0
 11
62.7238553516
 21
183.9824913817
 31
0.0
  0
LINE
  5
180
330
1F
100
AcDbEntity
  8
0
  6
PHANTOM
 62
     8
100
AcDbLine
 10
52.7238553516
 20
184.4824913817
 30
0.0
 11
52.7238553516
 21
184.9824913817
 31
0.0
  0
LINE
  5
181
330
1F
100
AcDbEntity
  8
0
  6
PHANTOM
 62
     8
100
AcDbLine
 10
52.7238553516
 20
184.9824913817
 30
0.0
 11
61.7238553516
 21
184.9824913817
 31
0.0
  0
LINE
  5
182
330
1F
100
AcDbEntity
  8
0
  6
PHANTOM
 62
     8
100
AcDbLine
 10
52.2238553516
 20
181.2284580741
 30
0.0
 11
51.7238553516
 21
181.2284580741
 31
0.0
  0
LINE
  5
183
330
1F
100
AcDbEntity
  8
0
  6
PHANTOM
 62
     8
100
AcDbLine
 10
51.7238553516
 20
181.2284580741
 30
0.0
 11
51.7238553516
 21
183.9824913817
 31
0.0
  0
LINE
  5
184
330
1F
100
AcDbEntity
  8
0
  6
PHANTOM
 62
     8
100
AcDbLine
 10
51.7238553516
 20
183.9824913817
 30
0.0
 11
52.2238553516
 21
183.9824913817
 31
0.0
  0
ARC
  5
185
330
1F
100
AcDbEntity
  8
0
  6
PHANTOM
 62
     8
100
AcDbCircle
 10
57.2238553516
 20
173.4824913817
 30
0.0
 40
9.500000000000007
100
AcDbArc
 50
0.0
 51
54.6234598481
  0
ARC
  5
186
330
1F
100
AcDbEntity
  8
0
  6
PHANTOM
 62
     8
100
AcDbCircle
 10
57.2238553516
 20
173.4824913817
 30
0.0
 40
9.500000000000007
100
AcDbArc
 50
180.0
 51
0.0
  0
ARC
  5
187
330
1F
100
AcDbEntity
  8
0
  6
PHANTOM
 62
     8
100
AcDbCircle
 10
57.2238553516
 20
173.4824913817
 30
0.0
 40
9.500000000000005
100
AcDbArc
 50
125.3765401519
 51
180.0
  0
LINE
  5
188
330
1F
100
AcDbEntity
  8
0
  6
PHANTOM
 62
     8
100
AcDbLine
 10
51.7238553516
 20
181.2284580741
 30
0.0
 11
52.0133290358
 21
180.8207756166
 31
0.0
  0
LINE
  5
189
330
1F
100
AcDbEntity
  8
0
  6
PHANTOM
 62
     8
100
AcDbLine
 10
62.7238553516
 20
181.2284580741
 30
0.0
 11
62.4343816674
 21
180.8207756166
 31
0.0
  0
LINE
  5
18A
330
1F
100
AcDbEntity
  8
0
  6
PHANTOM
 62
     8
100
AcDbLine
 10
62.7238553516
 20
183.9824913817
 30
0.0
 11
62.7238553516
 21
181.2284580741
 31
0.0
  0
LINE
  5
18B
330
1F
100
AcDbEntity
  8
0
  6
PHANTOM
 62
     8
100
AcDbLine
 10
62.7238553516
 20
181.2284580741
 30
0.0
 11
62.2238553516
 21
181.2284580741
 31
0.0
  0
ARC
  5
18C
330
1F
100
AcDbEntity
  8
0
  6
PHANTOM
 62
     8
100
AcDbCircle
 10
52.7238553516
 20
183.9824913817
 30
0.0
 40
1.000000000000007
100
AcDbArc
 50
90.0
 51
180.0
  0
ARC
  5
18D
330
1F
100
AcDbEntity
  8
0
  6
PHANTOM
 62
     8
100
AcDbCircle
 10
50.2238553516
 20
193.9824913817
 30
0.0
 40
2.5
100
AcDbArc
 50
90.0
 51
180.0
  0
LINE
  5
18E
330
1F
100
AcDbEntity
  8
0
  6
PHANTOM
 62
     8
100
AcDbLine
 10
47.7238553516
 20
193.9824913817
 30
0.0
 11
47.2238553516
 21
193.9824913817
 31
0.0
  0
LINE
  5
18F
330
1F
100
AcDbEntity
  8
0
  6
PHANTOM
 62
     8
100
AcDbLine
 10
50.2238553516
 20
196.9824913817
 30
0.0
 11
50.2238553516
 21
196.4824913817
 31
0.0
  0
LINE
  5
190
330
1F
100
AcDbEntity
  8
0
  6
PHANTOM
 62
     8
100
AcDbLine
 10
50.2238553516
 20
150.4824913817
 30
0.0
 11
64.2238553516
 21
150.4824913817
 31
0.0
  0
LINE
  5
191
330
1F
100
AcDbEntity
  8
0
  6
PHANTOM
 62
     8
100
AcDbLine
 10
64.2238553516
 20
150.4824913817
 30
0.0
 11
64.2238553516
 21
149.9824913817
 31
0.0
  0
LINE
  5
192
330
1F
100
AcDbEntity
  8
0
  6
PHANTOM
 62
     8
100
AcDbLine
 10
50.2238553516
 20
150.4824913817
 30
0.0
 11
50.2238553516
 21
149.9824913817
 31
0.0
  0
LINE
  5
193
330
1F
100
AcDbEntity
  8
0
  6
PHANTOM
 62
     8
100
AcDbLine
 10
67.2238553516
 20
193.9824913817
 30
0.0
 11
66.7238553516
 21
193.9824913817
 31
0.0
  0
LINE
  5
194
330
1F
100
AcDbEntity
  8
0
  6
PHANTOM
 62
     8
100
AcDbLine
 10
67.2238553516
 20
152.9824913817
 30
0.0
 11
66.7238553516
 21
152.9824913817
 31
0.0
  0
LINE
  5
195
330
1F
100
AcDbEntity
  8
0
  6
PHANTOM
 62
     8
100
AcDbLine
 10
66.7238553516
 20
152.9824913817
 30
0.0
 11
66.7238553516
 21
173.4824913817
 31
0.0
  0
LINE
  5
196
330
1F
100
AcDbEntity
  8
0
  6
PHANTOM
 62
     8
100
AcDbLine
 10
66.7238553516
 20
173.4824913817
 30
0.0
 11
66.7238553516
 21
193.9824913817
 31
0.0
  0
LINE
  5
197
330
1F
100
AcDbEntity
  8
0
  6
PHANTOM
 62
     8
100
AcDbLine
 10
64.2238553516
 20
196.9824913817
 30
0.0
 11
64.2238553516
 21
196.4824913817
 31
0.0
  0
LINE
  5
198
330
1F
100
AcDbEntity
  8
0
  6
PHANTOM
 62
     8
100
AcDbLine
 10
64.2238553516
 20
196.4824913817
 30
0.0
 11
50.2238553516
 21
196.4824913817
 31
0.0
  0
ARC
  5
199
330
1F
100
AcDbEntity
  8
0
  6
PHANTOM
 62
     8
100
AcDbCircle
 10
64.2238553516
 20
152.9824913817
 30
0.0
 40
2.5
100
AcDbArc
 50
270.0
 51
0.0
  0
ARC
  5
19A
330
1F
100
AcDbEntity
  8
0
  6
PHANTOM
 62
     8
100
AcDbCircle
 10
64.2238553516
 20
193.9824913817
 30
0.0
 40
2.5
100
AcDbArc
 50
0.0
 51
90.0
  0
LINE
  5
19B
330
1F
100
AcDbEntity
  8
0
  6
PHANTOM
 62
     8
100
AcDbLine
 10
47.7238553516
 20
193.9824913817
 30
0.0
 11
47.7238553516
 21
173.4824913817
 31
0.0
  0
LINE
  5
19C
330
1F
100
AcDbEntity
  8
0
  6
PHANTOM
 62
     8
100
AcDbLine
 10
47.7238553516
 20
173.4824913817
 30
0.0
 11
47.7238553516
 21
152.9824913817
 31
0.0
  0
LINE
  5
19D
330
1F
100
AcDbEntity
  8
0
  6
PHANTOM
 62
     8
100
AcDbLine
 10
47.7238553516
 20
152.9824913817
 30
0.0
 11
47.2238553516
 21
152.9824913817
 31
0.0
  0
ARC
  5
19E
330
1F
100
AcDbEntity
  8
0
  6
PHANTOM
 62
     8
100
AcDbCircle
 10
50.2238553516
 20
152.9824913817
 30
0.0
 40
2.5
100
AcDbArc
 50
180.0
 51
270.0
  0
DIMENSION
  5
19F
330
1F
100
AcDbEntity
  8
0
  6
CONTINUOUS
 62
     7
100
AcDbDimension
  2
*D8
 10
37.2238553516
 20
190.9824913817
 30
0.0
 11
37.2238553516
 21
173.2098982699
 31
0.0
 70
   160
  3
SLDDIMSTYLE0
100
AcDbAlignedDimension
 13
52.2238553516
 23
155.9824913817
 33
0.0
 14
52.2238553516
 24
190.9824913817
 34
0.0
 50
90.0
100
AcDbRotatedDimension
  0
DIMENSION
  5
1A9
330
1F
100
AcDbEntity
  8
0
  6
CONTINUOUS
 62
     7
100
AcDbDimension
  2
*D9
 10
75.3181516058
 20
152.9824913817
 30
0.0
 11
75.3181516058
 21
143.9679942757
 31
0.0
 70
   160
  3
SLDDIMSTYLE1
100
AcDbAlignedDimension
 13
62.2238553516
 23
158.9824913817
 33
0.0
 14
62.2238553516
 24
152.9824913817
 34
0.0
 50
90.0
100
AcDbRotatedDimension
  0
DIMENSION
  5
1B6
330
1F
100
AcDbEntity
  8
0
  6
CONTINUOUS
 62
     7
100
AcDbDimension
  2
*D11
 10
49.6028317983
 20
169.0824913817
 30
0.0
 11
76.7890614808
 21
184.7784726337
 31
0.0
 70
   163
  1
<>
  3
SLDDIMSTYLE2
100
AcDbDiametricDimension
 15
64.8448789049
 25
177.8824913817
 35
0.0
 40
0.0
  0
DIMENSION
  5
1C3
330
1F
100
AcDbEntity
  8
0
  6
CONTINUOUS
 62
     7
100
AcDbDimension
  2
*D12
 10
65.2238553516
 20
136.3837403277
 30
0.0
 11
57.6964653148
 21
136.3837403277
 31
0.0
 70
   160
  3
SLDDIMSTYLE1
100
AcDbAlignedDimension
 13
49.2238553516
 23
155.9824913817
 33
0.0
 14
65.2238553516
 24
155.9824913817
 34
0.0
100
AcDbRotatedDimension
  0
ENDSEC
  0
SECTION
  2
OBJECTS
  0
DICTIONARY
  5
C
330
0
100
AcDbDictionary
  3
ACAD_GROUP
350
D
  3
ACAD_MLINESTYLE
350
17
  3
ACAD_SCALELIST
350
A7
  3
ACDBVARIABLEDICTIONARY
350
1CF
  0
DICTIONARY
  5
D
102
{ACAD_REACTORS
330
C
102
}
330
C
100
AcDbDictionary
  0
DICTIONARY
  5
17
102
{ACAD_REACTORS
330
C
102
}
330
C
100
AcDbDictionary
  3
STANDARD
350
18
  0
DICTIONARY
  5
A7
102
{ACAD_REACTORS
330
C
102
}
330
C
100
AcDbDictionary
  0
DICTIONARY
  5
1CF
102
{ACAD_REACTORS
330
C
102
}
330
C
100
AcDbDictionary
  3
CANNOSCALE
350
1D0
  0
MLINESTYLE
  5
18
102
{ACAD_REACTORS
330
17
102
}
330
17
100
AcDbMlineStyle
  2
Standard
 70
     0
  3

 62
   256
 51
90.0
 52
90.0
 71
     2
 49
0.5
 62
   256
  6
BYLAYER
 49
-0.5
 62
   256
  6
BYLAYER
  0
DICTIONARYVAR
  5
1D0
102
{ACAD_REACTORS
330
1CF
102
}
330
1CF
100
DictionaryVariables
280
     0
  1
1:1
  0
ENDSEC
  0
EOF
